<?xml version="1.0" standalone="no"?>
<!DOCTYPE svg PUBLIC "-//W3C//DTD SVG 1.1//EN" "http://www.w3.org/Graphics/SVG/1.1/DTD/svg11.dtd">
<svg xmlns="http://www.w3.org/2000/svg">
<metadata>Copyright (C) 2025 by original authors @ fontello.com</metadata>
<defs>
<font id="fontello" horiz-adv-x="1000" >
<font-face font-family="fontello" font-weight="400" font-stretch="normal" units-per-em="1000" ascent="850" descent="-150" />
<missing-glyph horiz-adv-x="1000" />
<glyph glyph-name="ic-briefcase" unicode="&#xe800;" d="M833 600h-125v42a125 125 0 0 1-125 125h-166a125 125 0 0 1-125-125v-42h-125a125 125 0 0 1-125-125v-417a125 125 0 0 1 125-125h666a125 125 0 0 1 125 125v417a125 125 0 0 1-125 125m-458 42a42 42 0 0 0 42 41h166a42 42 0 0 0 42-41v-42h-250z m250-625h-250v500h250z m-500 41v417a42 42 0 0 0 42 42h125v-500h-125a42 42 0 0 0-42 41m750 0a42 42 0 0 0-42-41h-125v500h125a42 42 0 0 0 42-42z" horiz-adv-x="1000" />

<glyph glyph-name="ic-camera" unicode="&#xe801;" d="M841 611h-129l-64 95a42 42 0 0 1-34 19h-228a42 42 0 0 1-34-19l-64-95h-129a118 118 0 0 1-117-117v-417a118 118 0 0 1 117-117h682a118 118 0 0 1 117 117v417a118 118 0 0 1-117 117m34-534a34 34 0 0 0-34-34h-682a34 34 0 0 0-34 34v417a34 34 0 0 0 34 34h152a42 42 0 0 1 34 18l64 96h182l64-96a42 42 0 0 1 34-18h152a34 34 0 0 0 34-34z m-375 421a193 193 0 1 1 193-193 193 193 0 0 1-193 193m0-303a110 110 0 1 0 110 110 110 110 0 0 0-110-110" horiz-adv-x="1000" />

<glyph glyph-name="ic-magnify" unicode="&#xe802;" d="M904 4l-154 154a379 379 0 0 1 83 234 375 375 0 1 1-375-375 356 356 0 0 1 234 83l154-154a40 40 0 0 1 58 0 40 40 0 0 1 0 58z m-737 388a292 292 0 0 0 583 0 293 293 0 0 0-83-204h0a283 283 0 0 0-204-84 285 285 0 0 0-296 288z m458 0a39 39 0 0 0-42-42h-83v-83a39 39 0 0 0-42-42 39 39 0 0 0-41 42v83h-84a39 39 0 0 0-41 42 39 39 0 0 0 41 41h84v84a39 39 0 0 0 41 41 39 39 0 0 0 42-41v-84h83a39 39 0 0 0 42-41z" horiz-adv-x="1000" />

<glyph glyph-name="ic-check" unicode="&#xe803;" d="M375 79a38 38 0 0 0-29 13l-208 208a41 41 0 0 0 58 58l179-179 429 429a41 41 0 0 0 59-58l-459-458a38 38 0 0 0-29-13z" horiz-adv-x="1000" />

<glyph glyph-name="ic-check-box-blank" unicode="&#xe804;" d="M792 642v-584h-584v584h584m0 83h-584a84 84 0 0 1-83-83v-584a84 84 0 0 1 83-83h584a84 84 0 0 1 83 83v584a84 84 0 0 1-83 83z" horiz-adv-x="1000" />

<glyph glyph-name="ic-check-box-filled" unicode="&#xe805;" d="M792 725h-584a84 84 0 0 1-83-83v-584a84 84 0 0 1 83-83h584a84 84 0 0 1 83 83v584a84 84 0 0 1-83 83z m-375-583l-209 208 59 58 150-150 316 317 59-58z" horiz-adv-x="1000" />

<glyph glyph-name="ic-chevron-down" unicode="&#xe806;" d="M500 183a38 38 0 0 0-29 13l-250 250a41 41 0 0 0 58 58l221-221 221 221a41 41 0 0 0 58-58l-250-250a38 38 0 0 0-29-13z" horiz-adv-x="1000" />

<glyph glyph-name="ic-chevron-left" unicode="&#xe807;" d="M625 58a38 38 0 0 0-29 13l-250 250a40 40 0 0 0 0 58l250 250a41 41 0 0 0 58-58l-221-221 221-221a40 40 0 0 0 0-58 38 38 0 0 0-29-13z" horiz-adv-x="1000" />

<glyph glyph-name="ic-chevron-up" unicode="&#xe808;" d="M750 183a38 38 0 0 0-29 13l-221 221-221-221a41 41 0 0 0-58 58l250 250a40 40 0 0 0 58 0l250-250a40 40 0 0 0 0-58 38 38 0 0 0-29-13z" horiz-adv-x="1000" />

<glyph glyph-name="ic-chevron-right" unicode="&#xe809;" d="M375 58a38 38 0 0 0-29 13 40 40 0 0 0 0 58l221 221-221 221a41 41 0 0 0 58 58l250-250a40 40 0 0 0 0-58l-250-250a38 38 0 0 0-29-13z" horiz-adv-x="1000" />

<glyph glyph-name="ic-chevrons-right" unicode="&#xe80a;" d="M779 321l-208-208a40 40 0 0 0-58 0 40 40 0 0 0 0 58l179 179-179 179a41 41 0 0 0 58 59l208-209a40 40 0 0 0 0-58z m-291 58l-209 209a41 41 0 0 1-58-59l179-179-179-179a40 40 0 0 1 0-58 40 40 0 0 1 58 0l209 208a40 40 0 0 1 0 58z" horiz-adv-x="1000" />

<glyph glyph-name="ic-contact" unicode="&#xe80b;" d="M833 725h-666a125 125 0 0 1-125-125v-500a125 125 0 0 1 125-125h666a125 125 0 0 1 125 125v500a125 125 0 0 1-125 125z m-666-83h666a40 40 0 0 0 38-25l-371-259-371 259a40 40 0 0 0 38 25z m666-584h-666a42 42 0 0 0-42 42v421l350-246a59 59 0 0 1 25-8 59 59 0 0 1 25 8l350 246v-421a45 45 0 0 0-42-42z" horiz-adv-x="1000" />

<glyph glyph-name="ic-cooling" unicode="&#xe80c;" d="M948 419h-183a259 259 0 0 1-194 431h-55a44 44 0 0 1-43-43v-184a259 259 0 0 1-432-194v-54a44 44 0 0 1 44-44h184a260 260 0 0 1 194-431h54a44 44 0 0 1 43 44v183a259 259 0 0 1 432 194v54a44 44 0 0 1-44 44m-475-189v-243h-10a172 172 0 0 0-83 323 152 152 0 0 1 93-80m-21 282a152 152 0 0 1-80-93h-243v10a172 172 0 0 0 323 83m129-137a64 64 0 0 0-128-4 64 64 0 0 0 64 68 64 64 0 0 0 64-64m324-43v-11a172 172 0 0 0-323-83 152 152 0 0 1 80 94z m-345 188v243h11a172 172 0 0 0 83-323 152 152 0 0 1-94 80" horiz-adv-x="1000" />

<glyph glyph-name="ic-eye" unicode="&#xe80d;" d="M500 17c-278 0-433 303-442 316a35 35 0 0 0 0 34c9 14 164 316 442 316s433-302 442-316a35 35 0 0 0 0-34c-9-13-164-316-442-316z m-364 333c36-58 167-258 364-258s331 200 364 258c-36 58-167 258-364 258s-330-200-364-258z m364-147a147 147 0 1 0 147 147 148 148 0 0 0-147-147z m0 222a75 75 0 1 1 75-75 75 75 0 0 1-75 75z" horiz-adv-x="1000" />

<glyph glyph-name="ic-eye-off" unicode="&#xe80e;" d="M961-56l-867 867a37 37 0 0 1-55 0 37 37 0 0 1 0-55l169-170a711 711 0 0 1-175-219 41 41 0 0 1 0-36c6-12 170-337 467-337a408 408 0 0 1 228 70l175-175a40 40 0 0 1 55 0 40 40 0 0 1 3 55z m-539 428l100-100a79 79 0 0 0-100 100z m78-297c-211 0-350 211-389 275a678 678 0 0 0 153 181l100-100a157 157 0 0 1 133-242 154 154 0 0 1 84 25l91-92a342 342 0 0 0-172-47z m-122 572a39 39 0 0 0 30 48 345 345 0 0 0 92 11h0c297 0 461-323 467-336a41 41 0 0 0 0-37 857 857 0 0 0-89-133 41 41 0 0 0-56-5 40 40 0 0 0-5 55 640 640 0 0 1 69 100c-36 64-175 275-389 275a345 345 0 0 1-75-8 39 39 0 0 0-44 30z" horiz-adv-x="1000" />

<glyph glyph-name="ic-fashion" unicode="&#xe80f;" d="M934 623l0 0a46 46 0 0 1-36 18c-103-8-207-61-312-158h-129a549 549 0 0 1-315 158 38 38 0 0 1-36-21 557 557 0 0 1-64-260l21 2v-3l-21-1a516 516 0 0 1 66-259 43 43 0 0 1 37-19h0c105 9 210 63 315 161h125a554 554 0 0 1 315-161 44 44 0 0 1 36 22 553 553 0 0 1 64 256v6a524 524 0 0 1-66 259m-295-328v27h36a40 40 0 1 1 0 79h-36v26a502 502 0 0 0 237 133 451 451 0 0 0 42-196v-6a478 478 0 0 0-42-196 502 502 0 0 0-237 133m-161 110h83v-83h-83z m-77 22v-25h-36a38 38 0 0 1-40-40 39 39 0 0 1 40-40h36v-25a491 491 0 0 0-238-133 488 488 0 0 0 0 396 502 502 0 0 0 238-133" horiz-adv-x="1000" />

<glyph glyph-name="ic-films" unicode="&#xe810;" d="M793 767h-586a124 124 0 0 1-124-124v-586a124 124 0 0 1 124-124h586a124 124 0 0 1 124 124v586a124 124 0 0 1-124 124m-522-375h-104v104h104z m-104-84h104v-104h-104z m187 375h292v-666h-292z m375-187h104v-104h-104z m0-188h104v-104h-104z m104 335v-64h-104v104h64a40 40 0 0 0 40-40m-626 40h64v-104h-104v64a40 40 0 0 0 40 40m-40-626v64h104v-104h-64a40 40 0 0 0-40 40m626-40h-64v104h104v-64a40 40 0 0 0-40-40" horiz-adv-x="1000" />

<glyph glyph-name="ic-filter" unicode="&#xe811;" d="M583-67c-8 0-12 0-16 4l-167 84a40 40 0 0 0-25 37v259l-325 383a38 38 0 0 0-4 42 40 40 0 0 0 37 25h834a40 40 0 0 0 37-25 45 45 0 0 0-4-46l-325-379v-342a50 50 0 0 0-21-38 31 31 0 0 0-21-4z m-125 150l84-41v287a45 45 0 0 0 8 25l275 329h-650l275-325a31 31 0 0 0 8-25v-250z" horiz-adv-x="1000" />

<glyph glyph-name="ic-games" unicode="&#xe812;" d="M727 528a64 64 0 0 0-63-54 66 66 0 0 0-10 1 63 63 0 0 0-53 72 64 64 0 0 0 73 53l3 0a64 64 0 0 0 50-72m272 130l-61-389a114 114 0 0 0-129-94l-188 29v-205a113 113 0 0 0-113-113h-395a113 113 0 0 0-113 113v394a113 113 0 0 0 113 114h234l39 247a113 113 0 0 0 129 95l135-22a35 35 0 0 0 15-63 36 36 0 0 0-26-6l-135 21a42 42 0 0 1-32-7 42 42 0 0 1-17-28l-37-237h90a113 113 0 0 0 113-114v-118l198-31a42 42 0 0 1 32 8 43 43 0 0 1 17 28l61 389a43 43 0 0 1-35 49l-107 17a35 35 0 0 0 11 69l106-16a113 113 0 0 0 95-129m-491-223h-395a43 43 0 0 1-42-43v-394a43 43 0 0 1 42-43h395a43 43 0 0 1 43 43v394a43 43 0 0 1-43 43m-342-46a63 63 0 1 1 64-63 64 64 0 0 1-64 63m146-123a63 63 0 1 1 63-63 64 64 0 0 1-63 63m143-138a63 63 0 1 1 64-63 64 64 0 0 1-64 63" horiz-adv-x="1000" />

<glyph glyph-name="ic-gaming" unicode="&#xe813;" d="M1000 228v0a926 926 0 0 1-27 178 680 680 0 0 1-56 151c-91 161-195 133-304 105l-9-3a712 712 0 0 0-98-19h-11a696 696 0 0 0-99 19l-11 3c-109 28-212 53-302-106a633 633 0 0 1-55-151 925 925 0 0 1-27-178 342 342 0 0 1 18-145 107 107 0 0 1 68-63 116 116 0 0 1 29-4 146 146 0 0 1 59 13 572 572 0 0 1 159 113 251 251 0 0 0 166 50 251 251 0 0 0 166-50 570 570 0 0 1 160-113 141 141 0 0 1 87-9 106 106 0 0 1 68 65 338 338 0 0 1 18 144m-892-133c-3 1-11 3-19 21a264 264 0 0 0-11 108 818 818 0 0 0 25 163 551 551 0 0 0 49 133c61 109 127 92 217 68a697 697 0 0 1 125-23l17 0a722 722 0 0 1 124 24c90 22 155 38 215-69a538 538 0 0 0 49-132 902 902 0 0 0 25-164 268 268 0 0 0-12-111h0c-8-17-16-20-19-20a69 69 0 0 0-39 5 472 472 0 0 0-134 97 315 315 0 0 1-219 73 331 331 0 0 1-219-71 480 480 0 0 0-135-96 61 61 0 0 0-39-6m560 404a42 42 0 1 0 43-43 42 42 0 0 0-43 43m0-171a42 42 0 1 0 43-43 42 42 0 0 0-43 43m-85 85a42 42 0 1 0 42-42 42 42 0 0 0-42 42m171 0a42 42 0 1 0 42-42 42 42 0 0 0-42 42" horiz-adv-x="1000" />

<glyph glyph-name="ic-grid" unicode="&#xe814;" d="M417 392h-292a39 39 0 0 0-42 41v292a39 39 0 0 0 42 42h292a39 39 0 0 0 41-42v-292a39 39 0 0 0-41-41z m-250 83h208v208h-208z m708-83h-292a39 39 0 0 0-41 41v292a39 39 0 0 0 41 42h292a39 39 0 0 0 42-42v-292a39 39 0 0 0-42-41z m-250 83h208v208h-208z m250-542h-292a39 39 0 0 0-41 42v292a39 39 0 0 0 41 41h292a39 39 0 0 0 42-41v-292a39 39 0 0 0-42-42z m-250 84h208v208h-208z m-208-84h-292a39 39 0 0 0-42 42v292a39 39 0 0 0 42 41h292a39 39 0 0 0 41-41v-292a39 39 0 0 0-41-42z m-250 84h208v208h-208z" horiz-adv-x="1000" />

<glyph glyph-name="ic-gift" unicode="&#xe815;" d="M917 600h-100a118 118 0 0 1 16 63 148 148 0 0 1-145 145 215 215 0 0 1-188-129 215 215 0 0 1-187 129 148 148 0 0 1-146-145 118 118 0 0 1 16-63h-100a39 39 0 0 1-41-42v-208a39 39 0 0 1 41-42h42v-375a39 39 0 0 1 42-41h666a39 39 0 0 1 42 41v375h42a39 39 0 0 1 41 42v208a39 39 0 0 1-41 42z m-229 125a64 64 0 0 0 62-62 64 64 0 0 0-62-63h-134c21 50 63 125 134 125z m-438-62a64 64 0 0 0 63 62c70 0 112-75 133-125h-133a64 64 0 0 0-63 63z m-125-146h333v-125h-333z m83-209h250v-333h-250z m584-333h-250v333h250z m83 417h-333v125h333z" horiz-adv-x="1000" />

<glyph glyph-name="ic-gym" unicode="&#xe816;" d="M905 626a95 95 0 0 1-26-4 95 95 0 0 1-184-33v-136h-390v136a95 95 0 0 1-184 33 95 95 0 0 1-121-91v-346a95 95 0 0 1 95-94 94 94 0 0 1 26 4 95 95 0 0 1 184 33v136h391v-136a95 95 0 0 1 183-33 94 94 0 0 1 27-4 95 95 0 0 1 94 94v346a95 95 0 0 1-94 95m-136-37a21 21 0 1 0 41 0v-58a37 37 0 0 1 74 0 21 21 0 1 0 41 0v-346a21 21 0 1 0-41 0 37 37 0 0 1-74 0v-57a21 21 0 1 0-41 0z m-74-251h-391v41h391z m-544-116a37 37 0 0 1-37-37 21 21 0 1 0-41 0v346a21 21 0 1 0 41 0 37 37 0 0 1 74 0v58a21 21 0 1 0 42 0v-461a21 21 0 1 0-42 0v57a37 37 0 0 1-37 37" horiz-adv-x="1000" />

<glyph glyph-name="ic-heart-blank" unicode="&#xe817;" d="M500-71a38 38 0 0 0-29 13l-367 366a275 275 0 0 0-79 192 258 258 0 0 0 79 192 274 274 0 0 0 384 0l12-13 17 17h0a275 275 0 0 0 191 79h0a275 275 0 0 0 192-79h0a272 272 0 0 0 0-383l-367-367a43 43 0 0 0-33-17z m29 659a40 40 0 0 0-58 0l-46 45a176 176 0 0 1-133 55 167 167 0 0 1-129-55 186 186 0 0 1 0-266l337-338 338 338a182 182 0 0 1 54 133 201 201 0 0 1-54 133h0a176 176 0 0 1-134 55h0a201 201 0 0 1-133-55h0" horiz-adv-x="1000" />

<glyph glyph-name="ic-heart-filled" unicode="&#xe818;" d="M500-71a38 38 0 0 0-29 13l-367 366a275 275 0 0 0-79 192 258 258 0 0 0 79 192 274 274 0 0 0 384 0l12-13 17 17h0a275 275 0 0 0 191 79h0a275 275 0 0 0 192-79h0a272 272 0 0 0 0-383l-367-367a43 43 0 0 0-33-17z" horiz-adv-x="1000" />

<glyph glyph-name="ic-hitech" unicode="&#xe819;" d="M932 470v130a128 128 0 0 1-38 98v17h72c20 0 34 20 34 47s-14 46-34 46h-333c-20 0-34-20-34-46s14-47 34-47h193v-17a128 128 0 0 1-38-98v-19h-71c-11 40-37 65-65 65h-303c-29 0-54-25-66-65h-71v19a128 128 0 0 1-38 98v17h194c19 0 34 20 34 47s-15 46-34 46h-334c-19 0-34-20-34-46s15-47 34-47h73v-17a128 128 0 0 1-38-98v-130m143 0v19h71c12-40 37-65 66-65h4v-73a126 126 0 0 1-67-107l-41-278h-10c-19 0-34-20-34-47s15-46 34-46h76c19 0 34 20 34 46 0 25-13 44-31 47l38 259a67 67 0 0 0 10 28 73 73 0 0 1 63-56h151a73 73 0 0 1 63 56 67 67 0 0 0 9-28l38-259c-17-3-30-22-30-47 0-26 14-46 34-46h75c20 0 34 20 34 46s-14 47-34 47h-10l-40 278a126 126 0 0 1-67 107v73h4c29 0 54 25 65 65h72v-19m-133 65a28 28 0 0 0-5-18h-264l-37-1a26 26 0 0 0-5 19 46 46 0 0 0 4 18l301 1a26 26 0 0 0 6-19m-76-111v-116a46 46 0 0 0-4-18l-150 0a26 26 0 0 0-6 18v116z" horiz-adv-x="1000" />

<glyph glyph-name="ic-home" unicode="&#xe81a;" d="M900 508l-375 292a38 38 0 0 1-50 0l-375-292a38 38 0 0 1-17-33v-458a123 123 0 0 1 125-125h584a123 123 0 0 1 125 125v458a38 38 0 0 1-17 33z m-317-533h-166v333h166z m250 42a39 39 0 0 0-41-42h-125v375a39 39 0 0 1-42 42h-250a39 39 0 0 1-42-42v-375h-125a39 39 0 0 0-41 42v437l333 259 333-259z" horiz-adv-x="1000" />

<glyph glyph-name="ic-info" unicode="&#xe81b;" d="M500-108a458 458 0 1 0 458 458 457 457 0 0 0-458-458z m0 833a375 375 0 1 1 375-375 374 374 0 0 1-375 375z m8-250c5 0 5 0 9 4 4 0 4 4 8 4l4 5a38 38 0 0 1 13 29v8c0 4 0 4-4 8 0 5-5 5-5 9a4 4 0 0 1-4 4 38 38 0 0 1-46 8c-4-4-8-4-12-8l-4-4c0-4-4-4-4-9s0-4-5-8v-8a38 38 0 0 1 13-29c4-5 8-9 12-9a25 25 0 0 1 17-4z m34-292v167a42 42 0 0 1-84 0v-167a42 42 0 0 1 84 0z" horiz-adv-x="1000" />

<glyph glyph-name="ic-laptop" unicode="&#xe81c;" d="M958 79h-125v42a84 84 0 0 1 84 83v417a84 84 0 0 1-84 83h-666a84 84 0 0 1-84-83v-417a84 84 0 0 1 84-83v-42h-125a42 42 0 0 1 0-83h916a42 42 0 0 1 0 83z m-791 542h666v-417h-666z" horiz-adv-x="1000" />

<glyph glyph-name="ic-list" unicode="&#xe81d;" d="M875 600h-542a39 39 0 0 0-41 42 39 39 0 0 0 41 41h542a39 39 0 0 0 42-41 39 39 0 0 0-42-42z m42-250a39 39 0 0 1-42 42h-542a42 42 0 0 1 0-84h542a39 39 0 0 1 42 42z m0-292a39 39 0 0 1-42 42h-542a42 42 0 0 1 0-83h542a39 39 0 0 1 42 41z m-775 546c4 4 8 4 12 9a38 38 0 0 1 13 29v8c0 4 0 4-4 8 0 5-5 5-5 9s-4 4-4 8c-4 0-8 4-12 4a46 46 0 0 1-34 0c-4 0-8-4-12-8a15 15 0 0 1-4-8c0-5-4-5-4-9-5 0-5 0-5-4v-8a38 38 0 0 1 13-29c4-5 8-9 12-9a25 25 0 0 1 17-4 25 25 0 0 1 17 4z m12-283a4 4 0 0 0 4 4c0 4 5 4 5 8s0 5 4 9v8a25 25 0 0 1-4 17c-5 4-5 8-9 12a40 40 0 0 1-58 0c-4-4-8-8-8-12a25 25 0 0 1-5-17 38 38 0 0 1 13-29 38 38 0 0 1 29-13 38 38 0 0 1 29 13z m-12-300c4 0 8 4 12 8a40 40 0 0 1 0 59 40 40 0 0 1-58 0 40 40 0 0 1 0-59 38 38 0 0 1 29-12 25 25 0 0 1 17 4z" horiz-adv-x="1000" />

<glyph glyph-name="ic-mediamarkt" unicode="&#xe81e;" d="M908 248c-6-15-9-29-15-44-69 242-276 341-405 219 0 0 114 90 254-29a390 390 0 0 0 102-286 417 417 0 0 0-79-81c64 244-67 434-239 393-3 0 143 20 201-152 15-40 32-154-52-300a458 458 0 0 0-108-32c178 181 160 411-9 464-3 0 134-56 99-236-8-41-49-146-198-231-17 3-38 6-58 9-17 6-32 12-50 18 245 67 344 274 222 405 0 0 90-114-29-254-26-29-117-102-286-102a506 506 0 0 0-81 76c244-61 437 67 393 242 0 0 23-143-152-204-37-15-151-32-297 52a434 434 0 0 0-32 105c181-175 408-157 461 15 0 0-53-137-233-102-41 8-149 49-234 195a450 450 0 0 0 12 61 255 255 0 0 0 14 44c67-239 274-338 405-216 0 0-113-90-253 29-32 30-102 114-102 283a378 378 0 0 0 73 79c-59-239 70-429 241-388 3 0-142-20-201 152-14 40-32 151 50 294a404 404 0 0 0 105 35c-172-181-155-405 14-458 3 0-134 53-99 234 9 40 47 145 193 230a653 653 0 0 0 67-12c14-3 26-9 40-12-239-69-338-276-215-405 0 0-91 114 32 254 26 29 114 102 280 102a401 401 0 0 0 81-76c-242 59-428-70-387-241 0 0-24 142 151 203 38 12 149 33 294-52a372 372 0 0 0 35-105c-180 172-407 155-460-14 0-3 53 134 233 99 41-9 149-47 231-193a248 248 0 0 0-9-67" horiz-adv-x="1000" />

<glyph glyph-name="ic-menu" unicode="&#xe81f;" d="M875 58h-750a42 42 0 0 0 0 84h750a42 42 0 0 0 0-84z m42 292a39 39 0 0 1-42 42h-750a42 42 0 0 1 0-84h750a39 39 0 0 1 42 42z m-334 250a39 39 0 0 1-41 42h-417a39 39 0 0 1-42-42 39 39 0 0 1 42-42h417a39 39 0 0 1 41 42z" horiz-adv-x="1000" />

<glyph glyph-name="ic-message" unicode="&#xe820;" d="M125-67a25 25 0 0 0-17 4 37 37 0 0 0-25 38v667a123 123 0 0 0 125 125h584a123 123 0 0 0 125-125v-417a123 123 0 0 0-125-125h-484l-154-154a38 38 0 0 0-29-13z m83 750a39 39 0 0 1-41-41v-567l96 96a38 38 0 0 0 29 12h500a39 39 0 0 1 41 42v417a39 39 0 0 1-41 41z" horiz-adv-x="1000" />

<glyph glyph-name="ic-mic" unicode="&#xe821;" d="M508 183a167 167 0 0 1 167 167v333a167 167 0 1 1-333 0v-333a167 167 0 0 1 166-167z m-83 500a83 83 0 0 0 167 0v-333a83 83 0 0 0-167 0z m417-250v-83a333 333 0 0 0-292-329v-88h125a42 42 0 1 0 0-83h-333a42 42 0 0 0 0 83h125v88a336 336 0 0 0-292 329v83a39 39 0 0 0 42 42 39 39 0 0 0 41-42v-83a250 250 0 0 1 500 0v83a42 42 0 0 0 84 0z" horiz-adv-x="1000" />

<glyph glyph-name="ic-minus" unicode="&#xe822;" d="M865 288h-730a53 53 0 0 0-52 52 53 53 0 0 0 52 52h730a53 53 0 0 0 52-52 53 53 0 0 0-52-52z" horiz-adv-x="1000" />

<glyph glyph-name="ic-music" unicode="&#xe823;" d="M887 760a37 37 0 0 1-32 5l-477-151a36 36 0 0 1-25-35v-444a184 184 0 0 1-180-15 108 108 0 0 1 0-179 171 171 0 0 1 102-33 171 171 0 0 1 103 33 111 111 0 0 1 47 89v363l405 128v-234a184 184 0 0 1-181-15 108 108 0 0 1 0-179 183 183 0 0 1 205 0 111 111 0 0 1 48 89v549a36 36 0 0 1-15 29m-57-79v-84l-405-128v84z m0-499c0-26-37-49-78-49s-78 23-78 49 36 50 78 50 78-23 78-50m-477-152c0-26-36-50-78-50s-78 24-78 50 36 50 78 50 78-23 78-50" horiz-adv-x="1000" />

<glyph glyph-name="ic-perfume" unicode="&#xe824;" d="M624 551v83a35 35 0 0 1 0 5 110 110 0 0 1 30-4 85 85 0 0 1 60 24 91 91 0 0 1 0 128 95 95 0 0 1-121 6l-9-5v26a37 37 0 0 1-37 36h-119a37 37 0 0 1-37-36v-54h-4a37 37 0 0 1 0-73h4v-17h-4a37 37 0 0 1-36-36v-83a363 363 0 0 1-25-660 37 37 0 0 1 16-3h291a36 36 0 0 1 16 3 363 363 0 0 1-25 660m-113 119h-47v107h47z m-160-710a289 289 0 0 0-152 281 395 395 0 0 1 74-7 567 567 0 0 1 214 52c89 35 167 65 274 24a287 287 0 0 0 16-94h0a288 288 0 0 0-153-256z m72 637h128v-35h-128z m159-108a287 287 0 0 0 130-91 469 469 0 0 1-252-45l8-21-8 21c-77-30-151-59-245-41a289 289 0 0 0 178 177z m49 242c3 1 22 14 31 5a18 18 0 0 0 0-25c-4-4-15-6-32 5l-11 7z" horiz-adv-x="1000" />

<glyph glyph-name="ic-phone" unicode="&#xe825;" d="M830-104h-12a939 939 0 0 0-380 133 876 876 0 0 0-262 263 939 939 0 0 0-133 379 122 122 0 0 0 29 92 129 129 0 0 0 83 45h138a126 126 0 0 0 125-108 457 457 0 0 1 25-108 122 122 0 0 0-25-129l-34-34a647 647 0 0 1 192-191l29 29a130 130 0 0 0 133 29 457 457 0 0 1 109-25 126 126 0 0 0 108-125v-125a114 114 0 0 0-37-88 114 114 0 0 0-88-37z m-537 829h-125a43 43 0 0 1-34-17 60 60 0 0 1-8-29 784 784 0 0 1 121-341 760 760 0 0 1 237-238 784 784 0 0 1 342-121h0a47 47 0 0 1 33 13 38 38 0 0 1 13 29v125h0a44 44 0 0 1-38 42 464 464 0 0 0-125 33 45 45 0 0 1-46-8l-54-55a44 44 0 0 0-50-8 684 684 0 0 0-266 267 55 55 0 0 0 12 50l54 54a38 38 0 0 1 9 46 694 694 0 0 0-34 125 45 45 0 0 1-41 33z" horiz-adv-x="1000" />

<glyph glyph-name="ic-pin" unicode="&#xe826;" d="M517-150a59 59 0 0 0-25 8c-17 13-392 267-392 575a417 417 0 1 0 833 0c0-308-379-566-391-575a59 59 0 0 0-25-8z m0 917a334 334 0 0 1-334-334c0-225 255-433 334-491 79 58 333 266 333 491a334 334 0 0 1-333 334z m0-500a167 167 0 1 0 166 166 167 167 0 0 0-166-166z m0 250a83 83 0 1 1 83-84 84 84 0 0 1-83 84z" horiz-adv-x="1000" />

<glyph glyph-name="ic-pin-slider" unicode="&#xe827;" d="M517-150a59 59 0 0 0-25 8c-17 13-392 267-392 575a417 417 0 1 0 833 0c0-308-379-566-391-575a59 59 0 0 0-25-8z" horiz-adv-x="1000" />

<glyph glyph-name="ic-play" unicode="&#xe828;" d="M500-108a458 458 0 1 0 458 458 457 457 0 0 0-458-458z m0 833a375 375 0 1 1 375-375 374 374 0 0 1-375 375z m-83-583a38 38 0 0 0-21 4 44 44 0 0 0-21 37v334a44 44 0 0 0 21 37 38 38 0 0 0 42 0l250-166a38 38 0 0 0 16-34 51 51 0 0 0-16-33l-250-167a23 23 0 0 0-21-12z" horiz-adv-x="1000" />

<glyph glyph-name="ic-plus" unicode="&#xe829;" d="M865 402h-313v313a52 52 0 0 1-104 0v-313h-313a52 52 0 0 1 0-104h313v-313a52 52 0 0 1 104 0v313h313a52 52 0 0 1 0 104z" horiz-adv-x="1000" />

<glyph glyph-name="ic-refresh" unicode="&#xe82a;" d="M933 238a425 425 0 0 1-212 237 399 399 0 0 1-317 17 420 420 0 0 1-154-96l-125-117v154a39 39 0 0 1-42 42 39 39 0 0 1-41-42v-262c0-4 4-4 4-8a4 4 0 0 1 4-5h0c4-4 8-8 13-8h0a27 27 0 0 1 20-8h250a42 42 0 0 1 0 83h-145l116 113a355 355 0 0 0 125 79 331 331 0 0 0 425-204 43 43 0 0 1 54-25 38 38 0 0 1 25 50z" horiz-adv-x="1000" />

<glyph glyph-name="ic-search" unicode="&#xe82b;" d="M904 4l-154 154a379 379 0 0 1 83 234 375 375 0 1 1-375-375 356 356 0 0 1 234 83l154-154a40 40 0 0 1 58 0 40 40 0 0 1 0 58z m-737 388a292 292 0 0 0 583 0 293 293 0 0 0-83-204h0a283 283 0 0 0-204-84 285 285 0 0 0-296 288z" horiz-adv-x="1000" />

<glyph glyph-name="ic-reload" unicode="&#xe82c;" d="M911 398h0a47 47 0 0 1-47-48 363 363 0 1 0-88 237h-134a47 47 0 1 1 0-95h222a47 47 0 0 1 47 48v221a47 47 0 0 1-95 0v-79a458 458 0 1 1-579-707 455 455 0 0 1 262-83 464 464 0 0 1 81 7 458 458 0 0 1 378 451 47 47 0 0 1-47 48z" horiz-adv-x="1000" />

<glyph glyph-name="ic-share" unicode="&#xe82d;" d="M875 350v-333a123 123 0 0 0-125-125h-500a123 123 0 0 0-125 125v333a39 39 0 0 0 42 42 39 39 0 0 0 41-42v-333a39 39 0 0 1 42-42h500a39 39 0 0 1 42 42v333a42 42 0 0 0 83 0z m-512 221l95 96v-442a42 42 0 0 1 84 0v442l96-96a40 40 0 0 1 58 0 40 40 0 0 1 0 58l-167 167c-4 4-8 8-12 8a46 46 0 0 1-34 0c-4-4-8-4-12-8l-167-167a41 41 0 0 1 59-58z" horiz-adv-x="1000" />

<glyph glyph-name="ic-smartphone" unicode="&#xe82e;" d="M708 808h-416a125 125 0 0 1-125-125v-666a125 125 0 0 1 125-125h416a125 125 0 0 1 125 125v666a125 125 0 0 1-125 125m42-791a42 42 0 0 0-42-42h-416a42 42 0 0 0-42 42v666a42 42 0 0 0 42 42h416a42 42 0 0 0 42-42z m-220 112a42 42 0 0 0 12-29 43 43 0 0 0-12-29 42 42 0 0 0-60 0 43 43 0 0 0-12 29 42 42 0 0 0 12 29 43 43 0 0 0 60 0" horiz-adv-x="1000" />

<glyph glyph-name="ic-smarthome" unicode="&#xe82f;" d="M595-40a39 39 0 0 0-39-39h-296a137 137 0 0 0-137 136v300l-15-15a39 39 0 0 0-27-11h0a39 39 0 0 0-28 66l344 343a104 104 0 0 0 139 0 19 19 0 0 0 1-2l339-341a39 39 0 0 0 0-55 40 40 0 0 0-55 0l-15 15v-23a39 39 0 1 0-77 0v102l-246 247a26 26 0 0 1-34 0l-248-248v-378a59 59 0 0 1 59-59h296a39 39 0 0 0 39-39m81 39a39 39 0 1 1 39-39 39 39 0 0 1-39 39m200 173a273 273 0 0 1-398 0 39 39 0 1 1 55-55 196 196 0 0 0 288 0 39 39 0 0 1 55 0 39 39 0 0 1 0 55m-198-38h-2a171 171 0 0 1-115-50 39 39 0 0 1 0-55 39 39 0 0 1 27-11h0a38 38 0 0 1 28 11 94 94 0 0 0 62 28 93 93 0 0 0 60-28 40 40 0 0 1 55 0 39 39 0 0 1 0 55 171 171 0 0 1-115 50" horiz-adv-x="1000" />

<glyph glyph-name="ic-sound" unicode="&#xe830;" d="M759 808h-468a83 83 0 0 1-83-82v-723a84 84 0 0 1 83-82h3v-35a36 36 0 0 1 72 0v35h318v-35a36 36 0 0 1 72 0v35h3a84 84 0 0 1 83 82v723a83 83 0 0 1-83 82m-478-805v724a10 10 0 0 0 9 9h468a10 10 0 0 0 10-9v-724a10 10 0 0 0-10-10h-468a10 10 0 0 0-9 10m244 278a209 209 0 1 1-209 208 209 209 0 0 1 209-208m0 345a137 137 0 1 0-136-137 137 137 0 0 0 136 137m0-356h0a126 126 0 1 1 126-126 126 126 0 0 1-126 126m0-72a54 54 0 1 0-54-55 54 54 0 0 0 54 55" horiz-adv-x="1000" />

<glyph glyph-name="ic-shield" unicode="&#xe831;" d="M506-150a61 61 0 0 0-18 4c-17 8-390 198-390 496v321a43 43 0 0 0 27 39l367 138a69 69 0 0 0 29 0l367-138a41 41 0 0 0 27-39v-321c0-298-373-488-390-496a61 61 0 0 0-19-4z m-325 792v-292c0-212 254-371 325-410 71 39 325 198 325 410v292l-325 123z" horiz-adv-x="1000" />

<glyph glyph-name="ic-star-blank" unicode="&#xe832;" d="M760-105a38 38 0 0 0-21 4l-237 125-238-125a46 46 0 0 0-46 4 40 40 0 0 0-16 42l45 266-191 184a42 42 0 0 0-13 41 40 40 0 0 0 34 30l266 37 121 242a43 43 0 0 0 75 0l121-242 267-37c12 0 25-13 33-30a38 38 0 0 0-13-41l-191-188 46-267a40 40 0 0 0-17-41 53 53 0 0 0-25-4z m-588 500l146-146a38 38 0 0 0 17-33l-33-205 183 96a31 31 0 0 0 37 0l184-96-38 205a42 42 0 0 0 13 37l150 142-204 29c-13 0-25 12-34 21l-91 187-92-183a31 31 0 0 0-29-21z" horiz-adv-x="1000" />

<glyph glyph-name="ic-star-filled" unicode="&#xe833;" d="M760-105a38 38 0 0 0-21 4l-237 125-238-125a46 46 0 0 0-46 4 40 40 0 0 0-16 42l45 266-191 184a42 42 0 0 0-13 41 40 40 0 0 0 34 30l266 37 121 242a43 43 0 0 0 75 0l121-242 267-37c12 0 25-13 33-30a38 38 0 0 0-13-41l-191-188 46-267a40 40 0 0 0-17-41 53 53 0 0 0-25-4z" horiz-adv-x="1000" />

<glyph glyph-name="ic-store" unicode="&#xe834;" d="M895 489l-52 209a36 36 0 0 1-36 27h-677a36 36 0 0 1-35-27l-52-209a37 37 0 0 1-1-9 144 144 0 0 1 52-111v-357a37 37 0 0 1 36-37h261a37 37 0 0 1 36 37v171h84v-171a37 37 0 0 1 36-37h260a37 37 0 0 1 37 37v357a143 143 0 0 1 52 111 37 37 0 0 1-1 9m-348-233h-156a37 37 0 0 1-37-36v-172h-187v292c3 0 6 0 9 0a130 130 0 0 1 98 44 130 130 0 0 1 195 0 130 130 0 0 1 195 0 130 130 0 0 1 98-44c3 0 6 0 9 0v-292h-187v172a37 37 0 0 1-37 36m117 261a37 37 0 0 1-36-37 65 65 0 0 0-61-67 65 65 0 0 0-62 67 36 36 0 1 1-73 0 65 65 0 0 0-61-67 65 65 0 0 0-61 67 37 37 0 1 1-73 0 65 65 0 0 0-61-67 64 64 0 0 0-61 63l44 176h620l44-176a64 64 0 0 0-61-63 65 65 0 0 0-61 67 37 37 0 0 1-37 37" horiz-adv-x="1000" />

<glyph glyph-name="ic-sublevel" unicode="&#xe835;" d="M958-25l0 0c-25 0-41 17-41 42v666c0 25 16 42 41 42h0c25 0 42-17 42-42v-666c0-25-17-42-42-42z" horiz-adv-x="1000" />

<glyph glyph-name="ic-tag-faces" unicode="&#xe836;" d="M500 808a458 458 0 1 1 458-458 457 457 0 0 1-458 458z m0-833a375 375 0 1 0 375 375 374 374 0 0 0-375-375z m-204 479a63 63 0 1 0 62-62 64 64 0 0 0-62 62z m292 0a63 63 0 1 0 62-62 64 64 0 0 0-62 62z m-296-187h425a228 228 0 0 0-425 0z" horiz-adv-x="1000" />

<glyph glyph-name="ic-tools" unicode="&#xe837;" d="M171-140a132 132 0 0 0-98 42 141 141 0 0 0 0 198l298 298a322 322 0 0 0 2 217 316 316 0 0 0 167 177 320 320 0 0 0 262 0 40 40 0 0 0 23-32 44 44 0 0 0-12-37l-173-173-27 29 29-29a4 4 0 0 1 0-6l73-73a4 4 0 0 1 6 0l173 173a42 42 0 0 0 37 12 44 44 0 0 0 32-23 318 318 0 0 0-394-431l-300-300a132 132 0 0 0-98-42z m500 875a215 215 0 0 1-96-20 238 238 0 0 1-123-132 224 224 0 0 1 6-179 41 41 0 0 0-8-46l-319-318a58 58 0 0 1 0-80 58 58 0 0 1 79 0l319 319a39 39 0 0 0 46 9 241 241 0 0 1 194 0 235 235 0 0 1 135 247l-125-125a88 88 0 0 0-123 0l-73 75a88 88 0 0 0 0 123l125 125a226 226 0 0 1-37 2z m-58-156z" horiz-adv-x="1000" />

<glyph glyph-name="ic-times" unicode="&#xe838;" d="M558 350l221 221a41 41 0 1 1-58 58l-221-221-221 221a41 41 0 0 1-58-58l221-221-221-221a40 40 0 0 1 0-58 40 40 0 0 1 58 0l221 221 221-221a40 40 0 0 1 58 0 40 40 0 0 1 0 58z" horiz-adv-x="1000" />

<glyph glyph-name="ic-truck" unicode="&#xe839;" d="M988 421l-125 125a38 38 0 0 1-30 12h-125v167a39 39 0 0 1-41 42h-625a39 39 0 0 1-42-42v-542a39 39 0 0 1 42-41h58a118 118 0 0 1-17-63 148 148 0 0 1 146-146 148 148 0 0 1 146 146 118 118 0 0 1-17 63h280a175 175 0 0 1-17-63 146 146 0 0 1 292 0 118 118 0 0 1-17 63h62a39 39 0 0 1 42 41v209a38 38 0 0 1-12 29z m-905 262h542v-458h-542z m209-604a64 64 0 0 0-63-62 63 63 0 0 0 0 125 64 64 0 0 0 63-63z m541 0a63 63 0 1 0-62 63 64 64 0 0 0 62-63z m84 146h-209v250h109l100-100z" horiz-adv-x="1000" />

<glyph glyph-name="ic-tent" unicode="&#xe83a;" d="M891-62l-380 700 63 115a37 37 0 1 1-66 36l-39-72-39 72a37 37 0 1 1-66-36l63-115-381-700a37 37 0 0 1 33-55h780a37 37 0 0 1 32 55m-321 19h-203l102 187z m-101 303a37 37 0 0 1-33-20l-153-283h-141l327 603 327-603h-141l-153 283a37 37 0 0 1-33 20" horiz-adv-x="1000" />

<glyph glyph-name="ic-tv" unicode="&#xe83b;" d="M833 808h-666a125 125 0 0 1-125-125v-458a125 125 0 0 1 125-125h233l-138-137a42 42 0 0 1 59-59l179 179 179-179a42 42 0 0 1 59 59l-137 137h233a125 125 0 0 1 125 125v458a125 125 0 0 1-125 125m41-583a42 42 0 0 0-41-42h-667a42 42 0 0 0-42 42v458a42 42 0 0 0 42 42h667a42 42 0 0 0 41-42z" horiz-adv-x="1000" />

<glyph glyph-name="ic-360" unicode="&#xe83c;" d="M604 179l-96 96a35 35 0 0 1-50-50l30-29a918 918 0 0 0-280 71c-83 41-133 91-133 141 0 42 33 88 100 125a35 35 0 0 1 13 50 41 41 0 0 1-55 13h0c-108-63-133-138-133-183 0-80 63-155 175-209a955 955 0 0 1 321-79l-38-42a35 35 0 0 1 50-50l96 96a38 38 0 0 1 0 50z m-229 304v9c0 29-17 37-42 37-16 0-20 13-20 29s4 25 20 25 34 5 34 38a31 31 0 0 1-34 33c-20 0-33-4-33-25 0-16-8-25-33-25-34 0-38 9-38 29 0 34 25 84 104 84 59 0 100-21 100-84a77 77 0 0 0-33-75 63 63 0 0 0 46-66v-9c0-75-50-104-117-104-79 0-108 46-108 88 0 21 8 25 33 25 34 0 38-4 38-21 0-21 21-25 41-25 34-4 42 8 42 37z m346 9h0a116 116 0 0 0-117-113 117 117 0 0 0-108 109v120c0 80 50 109 117 109 75 0 108-46 108-84 0-20-13-29-33-29s-38 4-38 25c0 17-17 25-37 25-25 0-42-12-42-46v-41a64 64 0 0 0 54 21 88 88 0 0 0 96-75 19 19 0 0 0 0-21z m-150-9c0-33 17-45 42-45s41 12 41 45v5c0 33-16 45-41 45a38 38 0 0 1-42-33v-17z m204 5v120a115 115 0 0 0 117 109 117 117 0 0 0 108-109v-120a115 115 0 0 0-117-109 117 117 0 0 0-108 109z m154 120c0 34-16 46-41 46s-42-12-42-46v-120c0-34 17-46 42-46s41 12 41 46z" horiz-adv-x="1000" />

<glyph glyph-name="ic-user" unicode="&#xe83d;" d="M833-67a39 39 0 0 0-41 42v83a123 123 0 0 1-125 125h-334a123 123 0 0 1-125-125v-83a39 39 0 0 0-41-42 39 39 0 0 0-42 42v83a206 206 0 0 0 208 209h334a206 206 0 0 0 208-209v-83a39 39 0 0 0-42-42z m-125 625a208 208 0 0 1-416 0 208 208 0 0 1 416 0z m-83 0a125 125 0 0 0-250 0 125 125 0 0 0 250 0z" horiz-adv-x="1000" />

<glyph glyph-name="ic-bell" unicode="&#xe83e;" d="M877 100h-750a50 50 0 0 0-42 29 40 40 0 0 0 17 46s108 79 108 342a292 292 0 0 0 583 0c0-263 104-342 109-342a42 42 0 0 0 16-46 45 45 0 0 0-41-29z m-663 83h571a684 684 0 0 0-75 334 208 208 0 0 1-417 0 632 632 0 0 0-79-334z m396-229a43 43 0 0 1-75 42 46 46 0 0 0-58-17 33 33 0 0 0-17 17 46 46 0 0 1-58 17 46 46 0 0 1-17-59 264 264 0 0 1 54-46 118 118 0 0 1 63-16 126 126 0 0 1 108 62z" horiz-adv-x="1000" />

<glyph glyph-name="ic-books" unicode="&#xe83f;" d="M471 837h-435a36 36 0 0 1-36-36v-903a36 36 0 0 1 36-35h436a36 36 0 0 1 35 35v690l191-712a36 36 0 0 1 34-26 38 38 0 0 1 10 1l210 57a36 36 0 0 1 22 16 35 35 0 0 1 3 28l-233 872a36 36 0 0 1-44 25l-193-52v4a36 36 0 0 1-27 35m200-154l-90-24a36 36 0 0 1-22-17l-1-1-25 92 142 38 25-93a35 35 0 0 1-29 5m-77-93l2 0 94 25a35 35 0 0 1 21 16c1 1 1 1 1 2l141-526a35 35 0 0 1-29 5l-90-24a35 35 0 0 1-23-19l-141 526a37 37 0 0 1 24-5m158-571l91 24a35 35 0 0 1 21 17 13 13 0 0 1 1 2l25-94-142-38-25 94a36 36 0 0 1 29-5m-445 1h93a35 35 0 0 1 27 12v-97h-147v97a35 35 0 0 1 27-13m0 72a35 35 0 0 1-27-13v546a35 35 0 0 1 27-13h93a35 35 0 0 1 27 13v-545a35 35 0 0 1-27 12z m0 591a35 35 0 0 1-27-12v97h147v-97a35 35 0 0 1-27 12z m-218-662h94a35 35 0 0 1 26 12v-97h-147v97a35 35 0 0 1 27-13m94 72h-94a35 35 0 0 1-27-13v546a35 35 0 0 1 27-13h94a35 35 0 0 1 26 13v-545a35 35 0 0 1-26 12m0 592h-94a35 35 0 0 1-27-13v97h147v-97a35 35 0 0 1-27 13" horiz-adv-x="1000" />

<glyph glyph-name="ic-book" unicode="&#xe840;" d="M917 767h-250a211 211 0 0 1-167-84 211 211 0 0 1-167 84h-250a39 39 0 0 1-41-42v-625a39 39 0 0 1 41-42h292a84 84 0 0 0 83-83 42 42 0 0 1 84 0 84 84 0 0 0 83 83h292a39 39 0 0 1 41 42v625a39 39 0 0 1-41 42z m-459-646a190 190 0 0 1-83 21h-250v541h208a123 123 0 0 0 125-125z m417 21h-250a190 190 0 0 1-83-21v437a123 123 0 0 0 125 125h208z" horiz-adv-x="1000" />

<glyph glyph-name="ic-blender" unicode="&#xe841;" d="M437 6a35 35 0 1 0 35 36 36 36 0 0 0-35-36m359 690h-103l3 26a10 10 0 0 1 0 3 8 8 0 0 1 1 2 123 123 0 0 1-123 123h-275a123 123 0 0 1-116-86h-21a37 37 0 0 1-31-58l64-95 50-400v-9a205 205 0 0 0-22-92l-17-35a281 281 0 0 1-30-125v-63a38 38 0 0 1 38-37h445a38 38 0 0 1 38 37v69a278 278 0 0 1-25 113l-26 61a206 206 0 0 0-18 81l3 20 182 41a71 71 0 0 1 55 71v281a72 72 0 0 1-72 72m-497 84h275a52 52 0 0 0 40-20h-355a52 52 0 0 0 40 20m-75-86h397l-59-448h-250l-48 382a34 34 0 0 1-6 15z m402-774h-379v30a210 210 0 0 0 22 94l17 34a278 278 0 0 1 29 102h245a276 276 0 0 1 21-79l27-60a209 209 0 0 0 18-85z m171 421l-161-36 43 320 119-1z" horiz-adv-x="1000" />

<glyph glyph-name="ic-box" unicode="&#xe842;" d="M904 575c0 4 0 4-4 8s-4 9-8 13a98 98 0 0 1-38 33l-291 167a133 133 0 0 1-125 0l-292-167c-13-12-25-21-38-33 0-4-4-8-8-13 0-4-4-4-4-8a133 133 0 0 1-13-58v-334a135 135 0 0 1 63-108l292-167a80 80 0 0 1 41-12 38 38 0 0 1 21-4c8 0 13 4 21 4 12 4 29 8 42 12l291 167a135 135 0 0 1 63 108h0v334a133 133 0 0 1-13 58z m-425 146a38 38 0 0 0 21 4 38 38 0 0 0 21-4l271-154-292-167-292 167z m-291-571a43 43 0 0 0-21 33v313l291-167v-333z m625 0l-271-154v333l291 167v-313a43 43 0 0 0-20-33z" horiz-adv-x="1000" />

<glyph glyph-name="ic-calendar" unicode="&#xe843;" d="M792 725h-84v42a42 42 0 0 1-83 0v-42h-250v42a39 39 0 0 1-42 41 39 39 0 0 1-41-41v-42h-84a123 123 0 0 1-125-125v-583a123 123 0 0 1 125-125h584a123 123 0 0 1 125 125v583a123 123 0 0 1-125 125z m-584-83h84v-42a39 39 0 0 1 41-42 39 39 0 0 1 42 42v42h250v-42a42 42 0 0 1 83 0v42h84a39 39 0 0 0 41-42v-125h-666v125a39 39 0 0 0 41 42z m584-667h-584a39 39 0 0 0-41 42v375h666v-375a39 39 0 0 0-41-42z" horiz-adv-x="1000" />

<glyph glyph-name="ic-more" unicode="&#xe844;" d="M500 267a83 83 0 1 0 83 83 84 84 0 0 0-83-83z m0 83z m0 208a83 83 0 1 0 83 84 84 84 0 0 0-83-84z m0 84z m0-667a83 83 0 1 0 83 83 84 84 0 0 0-83-83z m0 83z m0 0z m0 0z m0 0z m0 0z m0 0z m0 0z m0 0z" horiz-adv-x="1000" />

<glyph glyph-name="ic-edit" unicode="&#xe845;" d="M123-65a35 35 0 0 0-27 11 37 37 0 0 0-11 38l57 210c0 8 4 11 11 15l515 515a146 146 0 0 0 206-206l-515-515c-4-3-11-7-15-11l-210-57z m92 229l-39-138 138 38 506 507a71 71 0 0 1 0 100 71 71 0 0 1-99 0z m118-134z" horiz-adv-x="1000" />

<glyph glyph-name="ic-cart" unicode="&#xe846;" d="M375-108a83 83 0 1 0 83 83 84 84 0 0 0-83-83z m0 83z m0 0z m0 0z m0 0z m0 0z m0 0z m0 0z m0 0z m458-83a83 83 0 1 0 84 83 84 84 0 0 0-84-83z m0 83z m-433 167a125 125 0 0 0-121 100l-71 350v4l-33 171h-133a39 39 0 0 0-42 41 39 39 0 0 0 42 42h166a41 41 0 0 0 42-33l33-175h675a38 38 0 0 0 34-17 45 45 0 0 0 8-33l-67-350a129 129 0 0 0-125-100z m-100 416l58-300a41 41 0 0 1 42-33h404a41 41 0 0 1 42 33l62 300z" horiz-adv-x="1000" />

<glyph glyph-name="ic-cart-dense" unicode="&#xe847;" d="M403-7a65 65 0 1 0 65 65 65 65 0 0 0-65-65z m0 65z m0 0z m0 0z m0 0z m0 0z m0 0z m0 0z m0 0z m356-65a65 65 0 1 0 65 65 65 65 0 0 0-65-65z m0 65z m-337 130a97 97 0 0 0-94 78l-55 272v3l-26 133h-103a31 31 0 0 0-33 33 31 31 0 0 0 33 32h129a32 32 0 0 0 33-26l26-136h525a30 30 0 0 0 25-13 35 35 0 0 0 7-26l-52-272a100 100 0 0 0-97-78z m-77 324l45-233a32 32 0 0 1 32-26h315a32 32 0 0 1 32 26l49 233z" horiz-adv-x="1000" />

<glyph glyph-name="ic-blogger" unicode="&#xe848;" d="M821 404a42 42 0 0 1-18 27 177 177 0 0 1-37 4c-30 2-33 2-42 8-15 8-19 18-19 43a189 189 0 0 1-60 134 224 224 0 0 1-96 59 513 513 0 0 1-93 4c-101 1-124-1-158-15a208 208 0 0 1-126-147 1027 1027 0 0 1-5-152c-1-149 0-171 9-200a206 206 0 0 1 153-138c22-4 289-5 317-1a196 196 0 0 1 120 61 201 201 0 0 1 51 91 1663 1663 0 0 1 4 222z m-472 93c11 12 15 12 86 12 64 0 67 0 76-5a32 32 0 0 0 20-32 35 35 0 0 0-18-31c-7-4-11-5-74-5a716 716 0 0 0-74 2 38 38 0 0 0-16 59z m281-292l-22-4-113-1a760 760 0 0 0-134 3 41 41 0 0 0-22 28 41 41 0 0 0 12 33c11 9 15 10 143 10 131 0 131 0 143-12a36 36 0 0 0-7-57z" horiz-adv-x="1000" />

<glyph glyph-name="ic-clock" unicode="&#xe849;" d="M500-108a458 458 0 1 0 458 458 457 457 0 0 0-458-458z m0 833a375 375 0 1 1 375-375 374 374 0 0 1-375 375z m204-475a44 44 0 0 1-16 54l-146 71v225a39 39 0 0 1-42 42 39 39 0 0 1-42-42v-250a40 40 0 0 1 25-37l167-84c4-4 8-4 17-4a40 40 0 0 1 37 25z" horiz-adv-x="1000" />

<glyph glyph-name="ic-facebook-1" unicode="&#xe84a;" d="M682 306l21 136h-130v88a68 68 0 0 0 76 73h60v116a722 722 0 0 1-105 9c-108 0-178-65-178-183v-103h-119v-136h119v-328h147v328z" horiz-adv-x="1000" />

<glyph glyph-name="ic-fast-truck" unicode="&#xe84b;" d="M296 288h-171a39 39 0 0 0-42 41h0a39 39 0 0 0 42 42h171a39 39 0 0 0 42-42h0a39 39 0 0 0-42-41z m42 125h-171a39 39 0 0 0-42 41h0a39 39 0 0 0 42 42h171a39 39 0 0 0 41-42h0a39 39 0 0 0-41-41z m41 125h-171a39 39 0 0 0-41 41h0a39 39 0 0 0 41 42h171a39 39 0 0 0 42-42h0a39 39 0 0 0-42-41z m609-117l-125 125a38 38 0 0 1-30 12h-125v167a41 41 0 0 1-37 42h-421a39 39 0 0 1-42-42h0a39 39 0 0 1 42-42h375v-458h-583a39 39 0 0 1-42-42h0a39 39 0 0 1 42-41h58a118 118 0 0 1-17-63 148 148 0 0 1 146-146 148 148 0 0 1 146 146 118 118 0 0 1-17 63h280a175 175 0 0 1-17-63 146 146 0 0 1 292 0 118 118 0 0 1-17 63h62a41 41 0 0 1 42 37v213a38 38 0 0 1-12 29z m-759-404a63 63 0 0 0 0 125 63 63 0 0 0 0-125z m542 0a63 63 0 1 0 62 62 64 64 0 0 0-62-62z m146 208h-209v250h109l100-100z" horiz-adv-x="1000" />

<glyph glyph-name="ic-instagram" unicode="&#xe84c;" d="M495 523a168 168 0 1 1 168-168 168 168 0 0 1-168 168z m0-277a109 109 0 1 0 109 109 110 110 0 0 0-109-109z m215 284a39 39 0 1 0-40 40 39 39 0 0 0 40-40z m111-39a194 194 0 0 1-53 137 196 196 0 0 1-138 53c-54 3-216 3-270 0a195 195 0 0 1-138-53 195 195 0 0 1-53-137c-3-54-3-217 0-271a194 194 0 0 1 53-138 196 196 0 0 1 138-53c54-3 216-3 270 0a194 194 0 0 1 138 53 196 196 0 0 1 53 138c3 54 3 217 0 271z m-70-329a111 111 0 0 0-62-63 724 724 0 0 0-194-13 729 729 0 0 0-193 13 111 111 0 0 0-63 63 724 724 0 0 0-13 193 729 729 0 0 0 13 194 111 111 0 0 0 63 62 724 724 0 0 0 193 13 729 729 0 0 0 194-13 111 111 0 0 0 62-62 724 724 0 0 0 13-194c0-48 4-150-13-193z" horiz-adv-x="1000" />

<glyph glyph-name="ic-linkedin-1" unicode="&#xe84d;" d="M314 27h-136v438h136z m-68 498a79 79 0 1 0 78 80 80 80 0 0 0-78-80z m577-498h-136v213c0 51-1 116-71 116-71 0-81-55-81-112v-217h-136v438h130v-59h2a143 143 0 0 0 129 70c137 0 163-90 163-208v-241z" horiz-adv-x="1000" />

<glyph glyph-name="ic-printer" unicode="&#xe84e;" d="M803 502h-38v227a36 36 0 0 1-38 38h-454a36 36 0 0 1-38-38v-227h-38a112 112 0 0 1-114-114v-189a112 112 0 0 1 114-114h38v-114a36 36 0 0 1 38-38h454a36 36 0 0 1 38 38v114h38a112 112 0 0 1 114 114v189a112 112 0 0 1-114 114z m-492 189h378v-189h-378z m378-682h-378v227h378z m152 190a36 36 0 0 0-38-38h-38v113a36 36 0 0 1-38 38h-454a36 36 0 0 1-38-38v-113h-38a36 36 0 0 0-38 38v189a36 36 0 0 0 38 38h606a36 36 0 0 0 38-38z" horiz-adv-x="1000" />

<glyph glyph-name="ic-radio-button-blank" unicode="&#xe84f;" d="M500 767a417 417 0 1 1 417-417 417 417 0 0 1-417 417z m0-750a333 333 0 1 0 333 333 333 333 0 0 0-333-333z" horiz-adv-x="1000" />

<glyph glyph-name="ic-radio-button-filled" unicode="&#xe850;" d="M500 558a208 208 0 1 1 208-208 208 208 0 0 1-208 208z m0 209a417 417 0 1 1 417-417 417 417 0 0 1-417 417z m0-750a333 333 0 1 0 333 333 333 333 0 0 0-333-333z" horiz-adv-x="1000" />

<glyph glyph-name="ic-twitter" unicode="&#xe851;" d="M798 511c0-7 0-14 0-20a434 434 0 0 0-437-438 434 434 0 0 0-236 69 318 318 0 0 1 37-1 308 308 0 0 1 191 65 154 154 0 0 0-144 107 194 194 0 0 1 29-3 163 163 0 0 1 41 6 154 154 0 0 0-123 151v1a155 155 0 0 1 69-19 154 154 0 0 0-48 205 437 437 0 0 1 317-160 174 174 0 0 0-3 35 154 154 0 0 0 266 105 303 303 0 0 1 97 37 153 153 0 0 0-67-85 308 308 0 0 1 88 24 330 330 0 0 0-77-79z" horiz-adv-x="1000" />

<glyph glyph-name="ic-user-plus" unicode="&#xe852;" d="M691 88v-75a38 38 0 0 0-76 0v75a112 112 0 0 1-115 112h-267a112 112 0 0 1-115-112v-75a36 36 0 0 0-38-38 36 36 0 0 0-38 38v75a188 188 0 0 0 191 187h267a188 188 0 0 0 191-187z m-516 450a188 188 0 0 0 191 187 188 188 0 1 0 0-375 188 188 0 0 0-191 188z m77 0a112 112 0 0 1 114-113 112 112 0 0 1 115 113 112 112 0 0 1-115 112 112 112 0 0 1-114-112z m668-113h-76v75a38 38 0 0 1-77 0v-75h-76a36 36 0 0 1-38-37 36 36 0 0 1 38-38h76v-75a38 38 0 0 1 77 0v75h76a36 36 0 0 1 38 38 36 36 0 0 1-38 37z" horiz-adv-x="1000" />

<glyph glyph-name="ic-warning" unicode="&#xe853;" d="M146-71c-21 0-42 4-63 17-58 37-79 112-41 171l350 591c0 0 0 0 0 0 8 17 25 34 41 42 59 38 138 17 171-42l354-587c13-21 17-42 17-63 0-33-12-66-37-87-25-25-55-38-88-38h-704z m317 738l-350-592c-13-21-5-46 16-58 4 0 13 0 17-4h704c21 0 42 20 42 41 0 9 0 13-4 21l-350 592c-13 16-38 25-59 12-8-4-12-8-16-12z m79-363v167c0 25-17 42-42 42s-42-17-42-42v-167c0-25 17-41 42-41s42 20 42 41z m-13-196c9 9 13 17 13 30 0 12-4 20-13 29-16 16-46 16-58 0-8-4-13-17-13-25 0-13 5-21 13-29 8-13 17-13 29-13s21 0 29 8z" horiz-adv-x="1000" />

<glyph glyph-name="ic-youtube" unicode="&#xe854;" d="M888 533a101 101 0 0 1-71 71c-63 17-313 17-313 17s-250 0-312-17a101 101 0 0 1-71-71 1055 1055 0 0 1-17-194 1055 1055 0 0 1 17-194 99 99 0 0 1 71-70c62-16 312-16 312-16s250 0 313 16a99 99 0 0 1 71 70 1055 1055 0 0 1 16 194 1055 1055 0 0 1-16 194z m-466-313v238l209-119-209-119z" horiz-adv-x="1000" />

<glyph glyph-name="ic-zoom" unicode="&#xe855;" d="M904 4l-154 154a379 379 0 0 1 83 234 375 375 0 1 1-375-375 356 356 0 0 1 234 83l154-154a40 40 0 0 1 58 0 40 40 0 0 1 0 58z m-737 388a292 292 0 0 0 583 0 293 293 0 0 0-83-204h0a283 283 0 0 0-204-84 285 285 0 0 0-296 288z m458 0a39 39 0 0 0-42-42h-83v-83a39 39 0 0 0-42-42 39 39 0 0 0-41 42v83h-84a39 39 0 0 0-41 42 39 39 0 0 0 41 41h84v84a39 39 0 0 0 41 41 39 39 0 0 0 42-41v-84h83a39 39 0 0 0 42-41z" horiz-adv-x="1000" />

<glyph glyph-name="ic-check-circled" unicode="&#xe856;" d="M500 813c254 0 463-209 463-463s-209-463-463-463-462 209-462 463 208 463 462 463m0 37c-275 0-500-225-500-500s225-500 500-500 500 225 500 500-225 500-500 500l0 0z m-62-633c-5 0-13 4-17 4l-104 104c-9 8-9 21 0 29 8 9 21 9 29 0l87-87 213 216c8 9 21 9 29 0 8-8 8-20 0-29l-229-229c4-8-4-12-8-8z" horiz-adv-x="1000" />

<glyph glyph-name="ic-times-circled" unicode="&#xe857;" d="M500 813c254 0 463-209 463-463s-209-463-463-463-462 209-462 463 208 463 462 463m0 37c-275 0-500-225-500-500s225-500 500-500 500 225 500 500-225 500-500 500l0 0z m29-500l113 108c8 9 8 21 0 30-9 8-21 8-29 0 0 0 0 0 0 0l-113-109-108 113c-9 8-21 8-29 0-9-9-9-21 0-29l112-109-112-108c-9-8-9-21 0-29 0 0 0 0 0 0 8-9 20-9 29 0 0 0 0 0 0 0l108 108 108-112c9-9 21-9 30 0 0 0 0 0 0 0 8 8 8 20 0 29 0 0 0 0 0 0l-109 108z" horiz-adv-x="1000" />

<glyph glyph-name="ic-cart-circled" unicode="&#xe858;" d="M500 850a500 500 0 1 1 500-500 499 499 0 0 1-500 500z m0-963a463 463 0 1 0 463 463 462 462 0 0 0-463-463z m-62 223a42 42 0 1 0 41 42h0a42 42 0 0 0-41-42z m229 0a42 42 0 1 0 41 42h0a42 42 0 0 0-41-42z m-217 125a62 62 0 0 0-60 50l-36 175v3l-16 85h-67a21 21 0 0 0-21 19v2a21 21 0 0 0 19 21h85a20 20 0 0 0 21-17l17-88h337a19 19 0 0 0 17-8 23 23 0 0 0 4-17l-33-175a65 65 0 0 0-63-50h-204z m-50 209l29-150a20 20 0 0 1 21-17h202a20 20 0 0 1 21 17l31 150z" horiz-adv-x="1000" />

<glyph glyph-name="ic-contact-circled" unicode="&#xe859;" d="M500 813a463 463 0 1 0-462-463 463 463 0 0 0 462 463m0 37a500 500 0 1 1 500-500 500 500 0 0 1-500 500z m167-312h-334a63 63 0 0 1-62-63v-250a63 63 0 0 1 62-62h334a63 63 0 0 1 62 62v250a63 63 0 0 1-62 63z m-334-42h334a20 20 0 0 0 18-13l-185-129-185 129a20 20 0 0 0 18 13z m334-292h-334a21 21 0 0 0-20 21v210l175-122a30 30 0 0 1 12-5 30 30 0 0 1 13 5l175 122v-210a22 22 0 0 0-21-21z" horiz-adv-x="1000" />

<glyph glyph-name="ic-copy" unicode="&#xe85a;" d="M708 808h-500a84 84 0 0 1-83-83v-583h83v583h500z m125-166h-458a84 84 0 0 1-83-84v-583a84 84 0 0 1 83-83h458a84 84 0 0 1 84 83v583a84 84 0 0 1-84 84z m0-667h-458v583h458z" horiz-adv-x="1000" />

<glyph glyph-name="ic-local-offer-black" unicode="&#xe85b;" d="M892 368l-375 375a83 83 0 0 1-59 24h-291a84 84 0 0 1-84-84v-291a83 83 0 0 1 25-59l375-376a83 83 0 0 1 59-24 82 82 0 0 1 58 25l292 292a82 82 0 0 1 25 58 84 84 0 0 1-25 60z m-350-352l-375 376v291h291v1l375-375z" horiz-adv-x="1000" />

<glyph glyph-name="ic-question" unicode="&#xe85c;" d="M443 178h114v-114h-114z m229 401a57 57 0 0 0 57-57v-172l-172-115h-114v58l172 114v58h-287v114h344z m-172 143a372 372 0 1 1 263-109 370 370 0 0 1-263 109z m0 86a458 458 0 1 0-458-458 458 458 0 0 0 458 458z" horiz-adv-x="1000" />

<glyph glyph-name="ic-appliances" unicode="&#xe85d;" d="M804 808h-671a93 93 0 0 1-91-91v-759a93 93 0 0 1 91-91h671a93 93 0 0 1 92 91v759a93 93 0 0 1-92 91z m13-262v-588a13 13 0 0 0-13-12h-671a13 13 0 0 0-12 12v588z m-684 183h671a11 11 0 0 0 13-12v-92h-696v92a11 11 0 0 0 12 12z m417-79h54c17 0 25 13 25 29a27 27 0 0 1-25 25h-54a31 31 0 0 1-29-25 29 29 0 0 1 29-29z m142 0h54c17 0 25 13 25 29a27 27 0 0 1-25 25h-54c-17 0-25-12-25-29a27 27 0 0 1 25-25z m-225-675a266 266 0 0 1 266 267v21h0a270 270 0 0 1-537 0h0v-21a275 275 0 0 1 271-267z m154 304a63 63 0 0 0-75 0 128 128 0 0 1-79 25h0a137 137 0 0 1-79-25 63 63 0 0 0-75 0 84 84 0 0 1-34 17 188 188 0 0 0 134 133 191 191 0 0 0 233-133 130 130 0 0 0-25-17z m-188-66a63 63 0 0 0 75 0 128 128 0 0 1 80-25 141 141 0 0 1 70 20 197 197 0 0 0-150-150 190 190 0 0 0-225 150h0a141 141 0 0 1 71-20 137 137 0 0 1 79 25z" horiz-adv-x="1000" />

<glyph glyph-name="ic-book-awards" unicode="&#xe85e;" d="M804 808h-562a114 114 0 0 1-117-116v-700a117 117 0 0 1 117-117h562a33 33 0 0 1 34 33v867c4 17-13 33-34 33z m-500-700v630h467v-634h-467z m-108-12v596a49 49 0 0 0 37 46v-630a132 132 0 0 1-37-12z m46-58h529v-92h-529a46 46 0 0 0 0 92z m458 533l-96 12-41 88a28 28 0 0 1-38 12c-8 5-12 0-12-8l-42-87-100-17a23 23 0 0 1-21-29 32 32 0 0 1 8-17h0l71-67-16-95a23 23 0 0 1 20-30 25 25 0 0 1 17 5l88 45 87-45a29 29 0 0 1 38 12 25 25 0 0 1 4 17l-17 96 71 66a23 23 0 0 1 0 38 45 45 0 0 1-21 4z m-104-83c-8-5-8-17-8-25l8-59-46 29a26 26 0 0 1-25 0l-54-25 8 59a31 31 0 0 1-8 25l-42 41 59 9a28 28 0 0 1 20 16l25 55 25-55a42 42 0 0 1 21-16l59-9z m-33-200v-109a27 27 0 0 0-25-25 28 28 0 0 0-30 25v109a24 24 0 0 0 25 25 24 24 0 0 0 30-25z m-109-55v-54a27 27 0 0 0-25-25 28 28 0 0 0-29 25v54a24 24 0 0 0 25 25 24 24 0 0 0 29-25z m217 0v-54a27 27 0 0 0-25-25 28 28 0 0 0-29 25v54a24 24 0 0 0 25 25 24 24 0 0 0 29-25z" horiz-adv-x="1000" />

<glyph glyph-name="ic-book-friends" unicode="&#xe85f;" d="M179 75h0a103 103 0 0 1 104 104h0a103 103 0 0 1-104 104 103 103 0 0 1-104-104h0a103 103 0 0 1 104-104z m-41 108h0a42 42 0 0 0 41 42h0a42 42 0 1 0 0-84c-25-4-41 17-41 42z m220-221h0v-37a29 29 0 0 0-29-29h0a29 29 0 0 0-29 29h0v37a39 39 0 0 1-42 42h-154a39 39 0 0 1-41-42h0v-37a29 29 0 0 0-30-29h0a25 25 0 0 0-33 25h0v37a103 103 0 0 0 104 105h150a97 97 0 0 0 104-101z m642 521h0v-38a29 29 0 0 0-29-29h0a29 29 0 0 0-29 29h0v34a39 39 0 0 1-42 41h-150a39 39 0 0 1-42-41h0v-38a29 29 0 0 0-29-29h0a29 29 0 0 0-29 29h0v38a103 103 0 0 0 104 104h150a95 95 0 0 0 96-100z m-179 116h0a103 103 0 0 1 104 105h0a104 104 0 0 1-208 0h0a101 101 0 0 1 104-105z m-42 105h0a42 42 0 0 0 42 41h0a42 42 0 1 0 0-83c-25-5-42 16-42 41z m-58-767v13h0l-238 874a33 33 0 0 1-41 25l-192-54h0l-21-4a37 37 0 0 1-25-42l234-870h0c0-4 4-8 4-13l4-4 8-8h0a15 15 0 0 0 9-4h16l213 58c4 0 4 0 8 4l4 4h0l9 9h0c4 4 8 8 8 12z m-300 288l-100 370h0a38 38 0 0 1 21-4h8l92 25h0c4 0 4 4 8 4h0c4 4 4 4 4 8h0l100-370 42-154a28 28 0 0 1-25 4h-4l-92-25a42 42 0 0 1-21-17z m-88 432a53 53 0 0 1-25-16h0l-25 91 142 38 25-92h0a71 71 0 0 1-29 4h0z m271-607l4 4 5 4h0l25-92-138-37-25 92h0c4 0 4-4 8-4h21l92 25h0a66379422550365 66379422550365 0 0 0 8 8z" horiz-adv-x="1000" />

<glyph glyph-name="ic-events" unicode="&#xe860;" d="M692 371h0a21 21 0 0 1-21 17l-92 12-41 83-13 13a23 23 0 0 1-33-13l-42-83-92-8h0a28 28 0 0 1-20-17 20 20 0 0 1 8-25l67-62-17-92a19 19 0 0 1 12-25h0c5-4 9-4 17-4a15 15 0 0 1 13 4l79 42 83-42c4 0 8-4 13-4a15 15 0 0 1 12 4h0a30 30 0 0 1 13 25l-17 92 67 62a31 31 0 0 1 4 21z m-117-138l-46 25a27 27 0 0 1-25 0l-46-25 9 55h0a32 32 0 0 1-9 20l-41 38 54 8a23 23 0 0 1 21 13l25 46 25-50h0c4-5 12-9 16-13l50-8-37-34h0c-8-4-8-16-8-25z m258 484a122 122 0 0 1-37 8h-88v42a42 42 0 0 1-83 0v-42h-250v42a41 41 0 0 1-37 41h-5a41 41 0 0 1-41-37v-46h-84a123 123 0 0 1-41-8 122 122 0 0 1-84-113v-587a121 121 0 0 1 84-117 122 122 0 0 1 37-8h588a123 123 0 0 1 41 8 122 122 0 0 1 84 113v587a121 121 0 0 1-84 117z m0-325h0v-375a41 41 0 0 0-37-42h-588a41 41 0 0 0-41 38v379h0v83h0v125a41 41 0 0 0 37 42h88v-42a41 41 0 0 1 37-42h4a41 41 0 0 1 42 38v46h250v-42a42 42 0 0 1 83 0v42h84a41 41 0 0 0 41-38v-129h0z" horiz-adv-x="1000" />

<glyph glyph-name="ic-free-shipping" unicode="&#xe861;" d="M942 196h-688v-33a35 35 0 0 1 29-34h46a84 84 0 0 1-12-46 108 108 0 1 1 216 0 84 84 0 0 1-12 46h208a95 95 0 0 1-12-46 108 108 0 1 1 216 0 84 84 0 0 1-12 46h46a35 35 0 0 1 33 29v38z m-517-158a47 47 0 0 0-46 50 44 44 0 0 0 46 45 46 46 0 0 0 46-45 47 47 0 0 0-46-50z m408 0a46 46 0 1 0 46 45 46 46 0 0 0-46-45z m-404 454a74 74 0 0 1 29 33 99 99 0 0 1 13 50 164 164 0 0 1-13 58 160 160 0 0 1-37 38 147 147 0 0 1-58 12h-71a45 45 0 0 1-25-8c-4-12-9-17-9-25v-254a45 45 0 0 1 9-25 25 25 0 0 1 25-13 35 35 0 0 1 25 9 35 35 0 0 1 8 25v79h33l63-96 12-12a15 15 0 0 1 13-5 27 27 0 0 1 29 21 33 33 0 0 1-4 34z m-66 46h-38v79h33a62 62 0 0 0 25-4l13-13c4-4 4-12 4-25a45 45 0 0 0-4-21c0-4-4-8-8-12a62 62 0 0 0-25-4z m-159 145h-171a45 45 0 0 1-25-8c-4-12-8-17-8-25v-254a77 77 0 0 1 8-29 35 35 0 0 1 25-9 35 35 0 0 1 25 9 35 35 0 0 1 9 25v100h96a45 45 0 0 1 25 8 35 35 0 0 1 8 25 45 45 0 0 1-8 25c-9 0-17 4-30 4h-91v63h137a45 45 0 0 1 25 8c9 4 9 13 9 25s0 21-9 25a59 59 0 0 1-25 8z m500-66a45 45 0 0 1 25 8 35 35 0 0 1 9 25 35 35 0 0 1-9 25 35 35 0 0 1-25 8h-171a45 45 0 0 1-25-8 45 45 0 0 1-8-25v-254a45 45 0 0 1 8-25 35 35 0 0 1 25-8h171a45 45 0 0 1 25 8 35 35 0 0 1 9 25 45 45 0 0 1-9 25c-8 0-12 4-25 4h-137v67h96a45 45 0 0 1 25 8 35 35 0 0 1 8 25 45 45 0 0 1-8 25 35 35 0 0 1-25 8h-96v59z m263-192h-138v67h96a45 45 0 0 1 25 8 35 35 0 0 1 8 25 45 45 0 0 1-8 25 35 35 0 0 1-25 8h-96v59h138a45 45 0 0 1 25 8 59 59 0 0 1 8 25 45 45 0 0 1-8 25 35 35 0 0 1-25 8h-171a45 45 0 0 1-25-8 35 35 0 0 1-8-25v-254a45 45 0 0 1 8-25 35 35 0 0 1 25-8h171a45 45 0 0 1 25 8 35 35 0 0 1 8 25 45 45 0 0 1-8 25c-13 0-17 4-25 4z" horiz-adv-x="1000" />

<glyph glyph-name="ic-payment-method" unicode="&#xe862;" d="M796 725h-650a148 148 0 0 1-146-146v-491a148 148 0 0 1 146-146h654a148 148 0 0 1 146 146v491a154 154 0 0 1-150 146z m-650-79h654a66 66 0 0 0 67-67v-104h-184a146 146 0 0 1 0-292h180v-100a66 66 0 0 0-67-66h-650a66 66 0 0 0-67 66v496a66 66 0 0 0 67 67z m537-246h184v-133h-184a67 67 0 1 0 0 133z m-29-67c0 17 13 25 29 25h38c17 0 25-12 25-29s-13-25-29-25h-38a36 36 0 0 0-25 29z" horiz-adv-x="1000" />

<glyph glyph-name="ic-school" unicode="&#xe863;" d="M817 108h-696a33 33 0 0 1-33-33v-163a33 33 0 0 1 33-33h696a33 33 0 0 1 33 33v163a33 33 0 0 1-33 33z m-563-154a34 34 0 0 1 34 38v46h37v-25a34 34 0 0 1 38-34 34 34 0 0 1 33 38v16h33v-50a36 36 0 0 1 71 4v46h42v-20a36 36 0 0 1 71 4v16h37v-50a36 36 0 0 1 71 4v46h62v-91h-625v91h63v-50a36 36 0 0 1 33-29z m509 854h-430a36 36 0 0 1-33-33v-592a33 33 0 0 1 33-33h425a93 93 0 0 1 92 92v479a88 88 0 0 1-87 87z m20-87v-483a20 20 0 0 0-20-21h-392v521h392a19 19 0 0 0 20-17z m-666-575h108a33 33 0 0 1 33 33v488a25 25 0 0 1-4 16l-50 105a33 33 0 0 1-16 16 32 32 0 0 1-46-16l-54-105a32 32 0 0 1-5-16v-484a37 37 0 0 1 34-37z m37 71v37h38v-37z m0 441l17 38 17-38v-333h-34z m529-12h-212a33 33 0 0 1-33-33v-109a33 33 0 0 1 33-33h212a33 33 0 0 1 34 33v104a37 37 0 0 1-34 38z m-37-71v-37h-142v37z m71-179a36 36 0 0 0-34-33h-212a34 34 0 0 0-33 37 36 36 0 0 0 33 33h212a44 44 0 0 0 34-37z" horiz-adv-x="1000" />

<glyph glyph-name="ic-stationery" unicode="&#xe864;" d="M933 675v-675a93 93 0 0 0-91-92 38 38 0 0 0 0 75 18 18 0 0 1 16 17v675a18 18 0 0 1-16 17 38 38 0 1 0 0 75 93 93 0 0 0 91-92z m-229 92h0a38 38 0 0 1 0-75 18 18 0 0 0 17-17v-675a18 18 0 0 0-17-17 38 38 0 0 1 0-75 93 93 0 0 1 92 92v675a93 93 0 0 1-92 92z m-46-92v-675a93 93 0 0 0-91-92h-288c-83 0-83 0-91 4h0c-5 5-5 5-80 75l-95 96h0c-9 5-9 13-9 42s-4 100-4 225v325a93 93 0 0 0 92 92h475a93 93 0 0 0 91-92z m-529-600l38-37v37z m113 38v-130h325a18 18 0 0 1 16 17v675a18 18 0 0 1-16 17h-475a18 18 0 0 1-17-17v-525h129a38 38 0 0 0 38-37z" horiz-adv-x="1000" />

<glyph glyph-name="ic-summer" unicode="&#xe865;" d="M926 163h-204a957 957 0 0 1-188-21l-145 304a38 38 0 0 0 20-4 91 91 0 0 0 42-38h0c0-4 8-4 13-4l50 25h0c4 0 4 8 4 13a70 70 0 0 0 33 91 72 72 0 0 0 96-29h0c0-4 8-4 12-4l42 21h0c4 0 4 8 4 12l-25 50a360 360 0 0 1-325 204 387 387 0 0 1-121-20l-20 41a6 6 0 0 1-9 0l-46-21h0c-4 0-4-8-4-12l21-42a361 361 0 0 1-142-462l25-50h0a15 15 0 0 1 13-4l50 25h0c4 0 4 8 4 12v4a72 72 0 0 0 38 96 72 72 0 0 0 95-37h0c0-5 9-5 13-5l50 25h0c4 0 4 9 4 13a56 56 0 0 0-4 71l142-296-38-13a722 722 0 0 0-267-50h-150a9 9 0 0 1-8-8v-163a9 9 0 0 1 8-8h917a9 9 0 0 1 8 8v271a15 15 0 0 1-8 5z m-596 545h29a304 304 0 0 0 221-100 140 140 0 0 1-121-66 638 638 0 0 1-129 166z m63-191a145 145 0 0 1-125-59 509 509 0 0 0-42 142c-4 58 4 79 8 83h0c5 0 25-4 67-45a617 617 0 0 0 92-121z m-188-96a142 142 0 0 1-125-54 279 279 0 0 0 75 258 588 588 0 0 1 50-204z m517-329h142v-146h-792v37h87a775 775 0 0 1 292 59 760 760 0 0 0 271 50z m96 483a117 117 0 1 1-117 117 119 119 0 0 1 117-117z m0 71a46 46 0 1 0 46 46 46 46 0 0 0-46-46z" horiz-adv-x="1000" />

<glyph glyph-name="ic-tickets" unicode="&#xe866;" d="M933 289a40 40 0 0 1 30 38v91a148 148 0 0 1-146 146h-634l550 125a59 59 0 0 0 67-33 37 37 0 0 1 50-21 37 37 0 0 1 21 50 140 140 0 0 1-154 79l-559-125a151 151 0 0 1-116-146v-166a40 40 0 0 1 29-38 54 54 0 0 0 42-42 55 55 0 0 0-42-62 32 32 0 0 1-29-33v-92a148 148 0 0 1 146-146h629a148 148 0 0 1 146 146v92a40 40 0 0 1-30 37 54 54 0 0 0-41 42 51 51 0 0 0 41 58z m-816-162a132 132 0 0 1 58 58 131 131 0 0 1-58 171v62a70 70 0 0 0 71 71h445c0-21 17-33 38-37a44 44 0 0 1 42 37h108a70 70 0 0 0 71-71v-62a128 128 0 0 1 0-229v-63a70 70 0 0 0-71-71h-113c0 21-16 34-37 38a44 44 0 0 1-42-38h-441a70 70 0 0 0-71 71z m516-13a38 38 0 1 0 38-37 38 38 0 0 0-38 37z m0 250a38 38 0 1 0 38-37 38 38 0 0 0-38 37z m0-125a38 38 0 1 0 38-37 38 38 0 0 0-38 37z" horiz-adv-x="1000" />

<glyph glyph-name="ic-star-half" unicode="&#xe867;" d="M760-105a38 38 0 0 0-21 4l-237 125-238-125a46 46 0 0 0-46 4 40 40 0 0 0-16 42l45 266-191 184a42 42 0 0 0-13 41 40 40 0 0 0 34 30l266 37 121 242a43 43 0 0 0 75 0l121-242 267-37c12 0 25-13 33-30a38 38 0 0 0-13-41l-191-188 46-267a40 40 0 0 0-17-41 53 53 0 0 0-25-4z m-258 224l204-108-38 205a42 42 0 0 0 13 37l150 142-204 29c-13 0-25 12-34 21l-91 187z" horiz-adv-x="1000" />

<glyph glyph-name="ic-warning-circled" unicode="&#xe868;" d="M500 813a463 463 0 1 0-462-463h0a464 464 0 0 0 462 463m0 37a500 500 0 1 1 500-500 502 502 0 0 1-500 500z m21-583v200c0 12-8 21-17 16h0a21 21 0 0 1-21-16h0v-200c0-13 9-21 17-17h0c8-4 17 4 21 17z m-8-88a15 15 0 0 1 4 21 4 4 0 0 1-4 4 20 20 0 0 1-30 0 15 15 0 0 1-4-12c0-4 4-9 4-13a15 15 0 0 1 13-4c8 0 12 0 17 4z" horiz-adv-x="1000" />

<glyph glyph-name="ic-volume" unicode="&#xe869;" d="M458 16a59 59 0 0 0-25 9l-200 158h-150a39 39 0 0 0-41 42v250a39 39 0 0 0 41 41h150l196 159a45 45 0 0 0 46 4 40 40 0 0 0 25-38v-583a40 40 0 0 0-25-38 25 25 0 0 0-17-4z m-333 250h125a59 59 0 0 0 25-8l142-113v409l-142-113a59 59 0 0 0-25-8h-125z m671-254a38 38 0 0 0-29 13 40 40 0 0 0 0 58 375 375 0 0 1 0 529 41 41 0 0 0 58 58 460 460 0 0 0 0-650 77 77 0 0 0-29-8z m-150 150a38 38 0 0 0-29 13 40 40 0 0 0 0 58 166 166 0 0 1 0 237 41 41 0 0 0 58 59 254 254 0 0 0 0-354 33 33 0 0 0-29-13z" horiz-adv-x="1000" />

<glyph glyph-name="ic-volume-x" unicode="&#xe86a;" d="M475 679a38 38 0 0 1-42-4l-200-159h-150a39 39 0 0 1-41-41v-250a39 39 0 0 1 41-42h150l196-158a106 106 0 0 1 29-9 25 25 0 0 1 17 4 48 48 0 0 1 25 38v583a40 40 0 0 1-25 38z m-58-534l-142 113a59 59 0 0 1-25 8h-125v167h125a59 59 0 0 1 25 8l142 113z m571 109a40 40 0 0 0 0-59 40 40 0 0 0-59 0l-96 96-95-96a40 40 0 0 0-59 0 40 40 0 0 0 0 59l96 96-96 95a41 41 0 0 0 59 59l95-96 96 96a41 41 0 0 0 59-59l-96-95z" horiz-adv-x="1000" />

<glyph glyph-name="ic-user-filled" unicode="&#xe86b;" d="M833-67h-666a39 39 0 0 0-42 42v83a206 206 0 0 0 208 209h334a206 206 0 0 0 208-209v-83a39 39 0 0 0-42-42z m-125 625a208 208 0 0 1-416 0 208 208 0 0 1 416 0z" horiz-adv-x="1000" />

<glyph glyph-name="ic-stop" unicode="&#xe86c;" d="M500-108a458 458 0 1 0 458 458 459 459 0 0 0-458-458m0 833a375 375 0 1 1 375-375 376 376 0 0 1-375 375m125-542h-250a42 42 0 0 0-42 42v250a42 42 0 0 0 42 42h250a42 42 0 0 0 42-42v-250a42 42 0 0 0-42-42" horiz-adv-x="1000" />

<glyph glyph-name="ic-send" unicode="&#xe86d;" d="M917 729a14 14 0 0 1-4 11v4c0 4-4 8-8 11s-7 4-11 8h-4a14 14 0 0 0-11 4h-4a14 14 0 0 1-11-4l-758-265a38 38 0 0 1-23-34 42 42 0 0 1 23-38l326-144 144-326a36 36 0 0 1 34-23h0a36 36 0 0 1 34 27l265 757c8 4 8 8 8 12z m-182-91l-280-280-231 102z m-125-564l-102 231 280 280z" horiz-adv-x="1000" />

<glyph glyph-name="ic-paperclip" unicode="&#xe86e;" d="M923 404a40 40 0 0 1-58 0l-371-371a216 216 0 0 0-146-58 200 200 0 0 0-141 342l370 371a111 111 0 0 0 84 37 135 135 0 0 0 87-33 123 123 0 0 0 4-171l-4-4-371-371a40 40 0 0 0-58 0 40 40 0 0 0 0 58l342 342a41 41 0 0 1-59 58l-345-346a125 125 0 0 1 4-175 116 116 0 0 1 87-33 120 120 0 0 1 88 38l375 375a204 204 0 0 1-4 287 201 201 0 0 1-288-4l-371-367a287 287 0 0 1 0-404 282 282 0 0 1 400 0l371 371a38 38 0 0 1 4 58z" horiz-adv-x="1000" />

<glyph glyph-name="ic-home-1" unicode="&#xe86f;" d="M900 508l-375 292a38 38 0 0 1-50 0l-375-292a38 38 0 0 1-17-33v-458a123 123 0 0 1 125-125h584a123 123 0 0 1 125 125v458a38 38 0 0 1-17 33z m-317-533h-166v333h166z m250 42a39 39 0 0 0-41-42h-125v375a39 39 0 0 1-42 42h-250a39 39 0 0 1-42-42v-375h-125a39 39 0 0 0-41 42v437l333 259 333-259z" horiz-adv-x="1000" />

<glyph glyph-name="ic-message-times" unicode="&#xe870;" d="M125-67a25 25 0 0 0-17 4 37 37 0 0 0-25 38v667a125 125 0 0 0 121 125h588a125 125 0 0 0 125-121v-421a125 125 0 0 0-121-125h-488l-154-154a38 38 0 0 0-29-13z m83 750a41 41 0 0 1-41-37v-571l96 96a38 38 0 0 0 29 12h500a41 41 0 0 1 41 38v421a41 41 0 0 1-37 41h-588z m359-254l96 96a38 38 0 0 1 12 29 60 60 0 0 1-8 29 38 38 0 0 1-29 13 45 45 0 0 1-30-13l-95-95-100 95a41 41 0 0 1-59-58l96-96-96-96a40 40 0 0 1 0-58 38 38 0 0 1 29-12h0a38 38 0 0 1 30 12l95 96 96-96a40 40 0 0 1 59 0 40 40 0 0 1 0 58z" horiz-adv-x="1000" />

<glyph glyph-name="ic-xmas" unicode="&#xe871;" d="M888 114l-90 110a81 81 0 0 1 45 129l-90 110a81 81 0 0 1 35 127l-169 208a83 83 0 0 1-125 0l-170-208a81 81 0 0 1 35-127l-89-110a81 81 0 0 1 45-129l-90-110a81 81 0 0 1 63-132h229v-69a40 40 0 0 1 79 0v69h229a81 81 0 0 1 63 132m-63-57h-537a6 6 0 0 0-4 9l137 170a38 38 0 0 1-29 61h-59a6 6 0 0 0-5 9l135 166a38 38 0 0 1-29 61h-47a6 6 0 0 0-5 3 6 6 0 0 0 1 6l169 209a6 6 0 0 0 4 2 6 6 0 0 0 5-2l169-209a6 6 0 0 0 1-6 6 6 0 0 0-5-3h-47a38 38 0 0 1-30-61l135-166a6 6 0 0 0-4-9h-59a38 38 0 0 1-29-62l137-169a6 6 0 0 0-4-9" horiz-adv-x="1000" />

<glyph glyph-name="ic-black-friday" unicode="&#xe872;" d="M385 370a30 30 0 1 0 30 30 30 30 0 0 0-30-30m274-153a30 30 0 1 1-29-30 30 30 0 0 1 29 30m-29 30a30 30 0 1 1 29-30 30 30 0 0 1-29 30m-249 394v127a41 41 0 0 1-81 0v-127a41 41 0 0 1 81 0m334 0v127a41 41 0 0 1-82 0v-127a41 41 0 0 1 82 0m-415 0a41 41 0 0 1 81 0v84h-81z m624-41v-587a122 122 0 0 0-83-113 124 124 0 0 0-42-8h-588a130 130 0 0 0-120 125v587a122 122 0 0 0 83 113 123 123 0 0 0 42 8h63v-84a62 62 0 0 1 123 0v84h211v-84a62 62 0 0 1 123 0v84h67a121 121 0 0 0 38-8 121 121 0 0 0 83-117m-539-292a92 92 0 1 1-92 92 93 93 0 0 1 92-92m58-168l183 305a31 31 0 0 1-54 32l-183-305a31 31 0 1 1 54-32m279 77a92 92 0 1 1-92-93 93 93 0 0 1 92 93m-89 424a41 41 0 0 1 82 0v84h-82z" horiz-adv-x="1000" />

<glyph glyph-name="ic-easter" unicode="&#xe873;" d="M390 514a31 31 0 1 0-30 31 31 31 0 0 0 30-31m106 31a31 31 0 1 1 30-31 31 31 0 0 1-30 31m136 0a31 31 0 1 1 31-31 31 31 0 0 1-31 31m153-503h0a359 359 0 0 0-578 0h-5v6a426 426 0 0 0-77 255c0 258 180 501 371 501s371-243 371-501a424 424 0 0 0-82-261z m-62 41a324 324 0 0 1 59 130h-572a324 324 0 0 1 58-130z m-520 172h586a429 429 0 0 1 3 48 488 488 0 0 1-12 104h-568a488 488 0 0 1-12-104 440 440 0 0 1 3-48m20 194h546a535 535 0 0 1-60 130h-426a536 536 0 0 1-60-130m89 172h368a210 210 0 0 1-368 0m372-579h-376a286 286 0 0 1 376 0m-324 137a31 31 0 1 1 30-31 31 31 0 0 1-30 31m136 0a31 31 0 1 1 31-31 31 31 0 0 1-31 31m136 0a31 31 0 1 1 31-31 31 31 0 0 1-31 31" horiz-adv-x="1000" />

<glyph glyph-name="ic-offers" unicode="&#xe874;" d="M929 779a110 110 0 0 1-118 16 314 314 0 0 1-118-76 347 347 0 0 1-42-52l-136 19a96 96 0 0 1-82-27l-359-360a96 96 0 0 1 0-136l240-239a96 96 0 0 1 135 0l360 359a96 96 0 0 1 27 82l-19 136a347 347 0 0 1 52 42 314 314 0 0 1 77 118 110 110 0 0 1-17 118m-176-440l-360-359a14 14 0 0 0-24 0l-239 239a17 17 0 0 0 0 24l359 360a17 17 0 0 0 15 5l161-23 1-1h0l47-6a17 17 0 0 0 15-15l3-19c-25-10-39-8-42-5a111 111 0 1 1 32-80 169 169 0 0 1 21 5l15-110a17 17 0 0 0-4-15m-120 144a31 31 0 0 0 0-44 32 32 0 0 0-44 0 31 31 0 0 0 44 44m238 203a238 238 0 0 0-58-87c-3-3-7-6-10-9a97 97 0 0 1-63 62c3 4 6 7 9 11a239 239 0 0 0 87 57c22 8 34 5 37 3s5-15-2-37" horiz-adv-x="1000" />

<glyph glyph-name="ic-sales" unicode="&#xe875;" d="M358-122a37 37 0 0 0-35 26l-42 144-151-4a35 35 0 0 0-30 15 37 37 0 0 0-5 34l50 142-124 85a36 36 0 0 0 0 60l124 85-50 142a37 37 0 0 0 5 34 34 34 0 0 0 30 15l151-4 42 144a37 37 0 0 0 58 19l119-92 120 92a37 37 0 0 0 57-18l42-145 151 4a34 34 0 0 0 30-15 36 36 0 0 0 5-33l-50-142 124-86a36 36 0 0 0 0-60l-124-85 50-142a36 36 0 0 0-5-34 35 35 0 0 0-30-15l-150 4-43-144a37 37 0 0 0-57-19l-120 92-119-92a37 37 0 0 0-23-8m142 182a37 37 0 0 0 22-7l100-77 36 121a35 35 0 0 0 35 26l126-4-42 119a37 37 0 0 0 14 42l103 71-103 71a37 37 0 0 0-14 42l42 119-126-4a34 34 0 0 0-36 27l-35 120-100-77a36 36 0 0 0-44 0l-100 77-35-120a35 35 0 0 0-36-26l-126 3 42-119a36 36 0 0 0-14-42l-103-71 103-71a36 36 0 0 0 14-42l-42-119 126 4a35 35 0 0 0 36-26l35-121 100 77a36 36 0 0 0 22 7m-65 114l184 306a31 31 0 0 1-54 32l-183-306a31 31 0 1 1 53-32m-57 168a92 92 0 1 0 92 93 93 93 0 0 0-92-93m0 122a30 30 0 1 1 30-29 30 30 0 0 1-30 29m244-305a92 92 0 1 0 93 92 93 93 0 0 0-93-92m0 122a30 30 0 1 1 30-30 30 30 0 0 1-30 30" horiz-adv-x="1000" />

<glyph glyph-name="ic-vat" unicode="&#xe876;" d="M362 816c-5-2-14-8-20-13-11-8-20-12-30-12-6 0-16-9-16-14 0-3 16-37 36-76l36-72-9-10c-15-14-19-33-11-51 2-4 4-8 3-8 0-1-8-3-18-7-108-36-190-124-218-236-8-33-9-43-9-211 0-154 0-161 4-172 9-27 32-48 60-53 9-2 92-2 307-2 284 1 296 1 305 5 24 8 43 28 49 50 4 12 4 16 4 180-1 183-1 177-12 216-31 106-112 190-215 224-10 3-18 6-18 6 0 4 5 10 8 10 1 0 10-3 18-7 35-18 63-13 88 16 11 11 14 14 23 16 11 3 21 2 33-6 13-8 37-14 46-11 2 1 2 4 0 15-1 8-3 15-3 15 0 0-5 1-11 2-5 1-14 5-19 8-13 7-30 12-43 10-19-3-29-8-46-25-13-13-17-16-25-18-11-3-14 0-4 4 18 8 33 29 37 51 3 15 8 25 17 31 7 4 10 5 28 6 17 1 22 2 32 7 7 3 12 7 12 8 0 2-4 7-10 13l-9 11-5-3c-4-3-11-4-26-5-18-1-22-2-32-7-21-10-32-26-37-52-5-25-16-35-41-35-7 0-17-1-21-2-8-1-8-1-17 8l-10 9 36 72c20 39 37 73 37 76 0 6-10 14-18 14-9 0-18 4-29 13-17 14-26 17-48 17-22 0-31-3-44-13-27-21-45-22-69-2-14 11-25 15-48 15-16 0-20-1-28-5z m42-27c4-1 11-6 17-10 6-5 15-10 21-13 10-4 13-5 29-5 15 0 19 1 28 5 6 3 16 8 22 13 18 15 37 16 53 4 9-7 22-15 28-19 3-1-1-9-29-66l-33-63h-69-70l-32 63c-18 35-32 64-32 65 0 0 3 2 7 4 4 2 12 7 17 11 15 13 29 16 43 11z m157-192c5-6 6-14 1-20l-4-5h-87-87l-4 5c-7 8-4 21 6 24 2 1 41 2 87 2l84-1 4-5z m-8-62c113-19 208-103 239-212 11-40 12-47 11-221 0-147-1-158-4-164-4-9-13-18-22-23l-8-4h-298-299l-7 4c-10 5-18 14-23 23-3 6-3 17-4 163 0 108 0 163 2 175 8 74 48 146 105 193 45 37 95 59 157 68 3 1 33 1 67 2 55 0 66-1 84-4z m-108-107c-91-11-165-75-189-163-5-17-5-21-5-55 0-34 0-38 5-55 27-99 113-165 215-165 101 0 189 67 215 165 6 22 8 63 4 88-6 44-29 89-63 122-31 31-74 53-118 61-16 3-48 4-64 2z m46-31c78-9 143-64 164-139 6-22 7-63 2-86-12-56-49-105-101-131-111-56-246 9-272 131-5 24-3 64 3 86 17 63 67 114 131 132 26 8 47 10 73 7z m-96-79c-16-5-29-17-33-32-4-12-4-15 0-27 4-13 18-28 30-31 12-4 25-3 35 2 38 18 35 73-4 87-9 3-21 3-28 1z m24-35c5-6 4-16-1-21-6-6-14-6-21-1-12 10-3 29 12 26 4 0 8-2 10-4z m40-63l-95-94 11-11 11-11 95 94 96 95-11 10c-6 6-11 11-12 11 0 0-43-42-95-94z m65-27c-2 0-9-3-14-7-14-8-21-20-22-36-1-16 2-24 11-35 10-10 20-15 35-15 19 0 33 8 42 24 13 24 2 56-23 66-6 3-21 4-29 3z m16-32c7-3 11-12 10-17-6-18-31-16-31 2 0 8 3 12 10 15 6 2 6 2 11 0z" horiz-adv-x="941" />

<glyph glyph-name="ic-in-store" unicode="&#xe877;" d="M1000 350a500 500 0 0 0-500-500 500 500 0 0 0-500 500 500 500 0 0 0 500 500 500 500 0 0 0 500-500z" horiz-adv-x="1000" />

<glyph glyph-name="ic-not-available" unicode="&#xe878;" d="M727 573c11 12 11 30 0 42-12 11-30 11-42 0l-207-207-207 207c-12 11-30 11-42 0-11-12-11-30 0-42l207-207-207-207c-11-12-11-30 0-42 12-11 30-11 42 0l207 207 207-207c12-11 30-11 42 0 11 12 11 30 0 42l-207 207 207 207z" horiz-adv-x="1000" />

<glyph glyph-name="ic-pickup" unicode="&#xe879;" d="M1000 350c0-276-224-500-500-500-276 0-500 224-500 500 0 276 224 500 500 500 276 0 500-224 500-500z m-940 0c0-243 197-441 440-441 243 0 441 198 441 441 0 243-198 441-441 441-243 0-440-198-440-441z m479 253c0 17-14 31-31 31-17 0-31-14-31-31v-326c0-11 5-20 14-26 9-6 20-7 30-2l195 91c16 7 23 26 15 41-7 16-25 23-41 16l-151-71v277z" horiz-adv-x="1000" />

<glyph glyph-name="ic-recycle-reverse" unicode="&#xe87a;" d="M467 198l-9-206-1-12-234 16q-20 2-38 18t-26 36q-6 15-8 31t2 36 7 31 12 36 11 29q43-6 284-15z m-216 327l100-212-82 52q-35-41-62-81t-41-70-22-53-10-35l-2-11-106 199q-10 14-10 31t3 26l4 10q20 35 64 105l-78 48z m687-289l-105-200q-7-16-21-26t-24-12l-10-2q-40-4-122-7l4-91-128 205 118 202 4-97q94-9 157-2t95 18z m-439 516q-26-35-147-243l-177 104-11 7 126 199q11 17 33 25t45 5q13-1 27-6t23-12l23-18q14-11 21-20t20-22 17-19z m366-171l118-203q10-21 7-42t-15-42q-7-11-18-20t-22-16-27-12-26-9-29-8-25-7q-19 40-148 244l174 108z m-80 126l79 46-122-208-234 11 84 48q-19 50-42 93t-42 69-36 44-26 26l-10 7h226q18 1 33-6t22-16l6-8q21-34 62-106z" horiz-adv-x="1000" />

<glyph glyph-name="ic-right-arrow" unicode="&#xe87b;" d="M515-102l-97 97 292 292h-710v141h710l-292 292 97 97 459-459-459-460z" horiz-adv-x="1000" />

<glyph glyph-name="box-now" unicode="&#xe87c;" d="M447 362c15-6 30-9 44-6 21 3 36 12 47 26 12 15 18 33 18 53 0 3 0 9-3 15-6 24-18 41-41 53-18 9-35 9-53 6-24-6-41-18-50-41-9-18-9-36-6-53 9-24 21-41 44-53z m3 94c6 15 18 18 32 18 18 0 30-12 33-30 0-3 0-9 0-12 0-8 0-14-6-23-6-12-15-18-30-18-11 0-23 3-29 12-6 6-6 12-9 21 3 11 3 23 9 32z m-62-121c-9 0-17 0-29 0-3 0-3 0-3-3 0-26 0-50 0-76 0 0 0 0 0-3 0 0 0 0 0 0 0 0 0 0 0 0 0 0 0 0 0 3-18 26-32 50-50 76 0 3-3 3-6 3-9 0-18 0-26 0-3 0-3 0-3-3 0-23 0-47 0-70 0-24 0-47 0-71 0-3 0-3 3-3 8 0 17 0 29 0 3 0 3 0 3 3 0 27 0 53 0 77 0 0 0 3 0 3 0 0 0 0 3-3 18-27 35-53 50-80 0-3 3-3 3-3 9 0 17 0 23 0 3 0 3 0 3 3 0 47 0 94 0 141 3 6 3 6 0 6z m174 30c0 0-3-3 0-3 0-3 3 0 3 0 9 0 20 0 29 0 3 0 3 0 6 3 12 17 21 35 32 53 0 3 0 3 3 0 12-18 21-36 33-53 0-3 3-3 6-3 8 0 20 0 29 0 0 0 3 0 3 0 0 0 0 3 0 3-15 23-29 44-44 67-3 3-3 3 0 6 15 21 29 44 44 65 0 0 0 3 0 3 0 0-3 0-3 0-12 0-21 0-32 0-3 0-3 0-6-3-12-18-21-32-33-50 0-3-3-3-3 0-11 18-20 32-32 50 0 3-3 3-3 3-6 0-12 0-15 0s-11 0-14 0c0 0-3 0-3 0 0-3 0-3 0-3 15-21 29-44 44-65 0-3 0-3 0-6-15-23-29-44-44-67z m-191 73c0 0 0 0 0 0 0 3 0 3 3 3 8 6 14 12 17 21 3 15-3 32-20 41-12 6-21 6-33 6-20 0-41 0-61 0 0 0 0 0-3 0 0 0-3 0-3-3 0 0 0-3 0-3 0-47 0-91 0-138 0 0 0 0 0-3 0-3 0-3 3-3 23 0 50 0 73 0 9 0 21 3 30 6 8 3 14 6 17 12 6 8 6 14 6 26 0 9-6 18-12 24-6 5-11 8-17 11z m-65 39c0 2 0 2 0 0 9 2 18 2 26 2 3 0 6 0 12-2 6-3 9-6 9-12 0-3 0-3 0-6 0-3-3-6-6-9-3-3-9-3-12-3-8 0-17 0-26 0-3 0-3 0-3 3 0 6 0 9 0 15 0 3 0 9 0 12z m50-77c-3-6-6-12-15-12-3 0-6 0-12 0-8 0-14 0-23 0 0 0-3 0-3 3 0 6 0 12 0 15 0 6 0 12 0 15 0 0 0 3 0 3 9 0 21 0 29 0 3 0 9 0 12-3 6-3 9-6 9-12 3-3 3-6 3-9z m388-65c-12 0-23 0-32 0-3 0-3 0-3-3-3-14-6-29-9-44-3-14-6-29-9-44 0 0 0 0 0 0 0 0 0 0 0 0 0 3 0 6-3 9-6 26-11 53-17 79 0 3 0 3-3 3-9 0-18 0-27 0-3 0-3 0-3-3-6-29-11-55-20-85 0 0 0-3 0-3 0 0 0 0 0 3-6 30-12 59-18 88 0 3 0 3-3 3-12 0-20 0-32 0-3 0-3 0-3-3 3-6 3-14 6-20 9-41 17-80 29-121 0-3 0-3 3-3 12 0 21 0 32 0 3 0 3 0 3 3 6 30 15 59 21 85 0 0 0 3 0 3 0 0 0-3 0-3 6-29 15-58 21-85 0-3 0-3 2-3 6 0 12 0 15 0 6 0 12 0 18 0 3 0 3 0 3 3 6 24 12 47 14 71 6 23 12 50 18 73 0-3 0-3-3-3z m-247 509c-268 0-485-220-485-488v-21c0-267 217-482 485-482 268 0 485 218 485 485v21c0 265-217 485-485 485z m280-700c-183 0-368 0-550 0 0 0 0 3 0 3 0 135 0 268 0 403 0 0 0 0 0 3 0 0 0 0 0 0 0 0 0 0 2 0 183 0 365 0 548 0 0 0 2 0 2 0 0-135 0-271-2-409 2 0 2 0 0 0z m-259 188c-18 9-36 12-53 6-24-3-41-17-53-41-9-18-9-35-6-53 6-23 18-41 41-53 15-6 30-9 44-9 21 3 36 9 50 24 15 15 21 32 21 53 0 6 0 12 0 15-9 29-21 47-44 58z m-3-91c-6-14-18-20-33-20-17 0-29 11-35 29 0 3 0 3 0 6 0 3 0 3 0 6 0 9 3 17 6 23 9 15 21 21 35 18 15 0 27-9 30-24 3-11 0-26-3-38z" horiz-adv-x="1000" />

<glyph glyph-name="ic-compare" unicode="&#xe87d;" d="M125 808c-69 0-125-56-125-125v-500c0-69 56-125 125-125h333c69 0 125 56 125 125v500c0 69-56 125-125 125h-333z m-42-125c0 23 19 42 42 42h333c23 0 42-19 42-42v-500c0-23-19-41-42-41h-333c-23 0-42 18-42 41v198h189l-31-30c-16-16-16-43 0-59 17-16 43-16 59 0l102 102c8 7 12 18 12 29 0 11-4 22-12 29l-102 102c-16 16-42 16-59 0-16-16-16-43 0-59l31-30h-189v218z m834-166c0 23-19 41-42 41h-312c-23 0-42 19-42 42 0 23 19 42 42 42h312c69 0 125-56 125-125v-500c0-69-56-125-125-125h-333c-69 0-125 56-125 125v83c0 23 18 42 41 42 23 0 42-19 42-42v-83c0-23 19-42 42-42h333c23 0 42 19 42 42v198h-147l30-31c17-16 17-42 0-58-16-17-42-17-59 0l-101 101c-16 16-16 43 0 59l101 101c17 17 43 17 59 0 17-16 17-42 0-59l-30-30h147v219z" horiz-adv-x="1000" />

<glyph glyph-name="ic-acs-point-new" unicode="&#xe87e;" d="M527-150c-9 1-17 4-25 8-17 13-392 267-392 575 0 55 11 109 32 160 21 50 52 96 91 135 38 39 84 69 135 90 50 21 104 32 159 32 55 0 109-11 160-32 50-21 96-51 135-90 38-39 69-85 90-135 21-51 32-105 32-160 0-308-379-566-392-575-7-4-16-7-25-8z m0 917c-88-1-173-36-235-98-63-63-98-147-98-236 0-225 254-433 333-491 79 58 333 266 333 491 0 89-35 173-97 236-63 62-148 97-236 98z m-183-236l189 111 189-111m-378 0v-234l189-111m-189 345l189-112m189 112l-189-112m189 112v-89-145l-189-111m0 0v233" horiz-adv-x="1042" />

<glyph glyph-name="ic-credit-card" unicode="&#xe881;" d="M125 725c-69 0-125-56-125-125v-167-333c0-69 56-125 125-125h750c69 0 125 56 125 125v333 167c0 69-56 125-125 125z m0-83h750c23 0 42-19 42-42v-125h-834v125c0 23 19 42 42 42z m-42-250h834v-292c0-23-19-42-42-42h-750c-23 0-42 19-42 42z" horiz-adv-x="1000" />

<glyph glyph-name="ic-trash-icon" unicode="&#xe885;" d="M908 633h-175v46c0 34-12 67-37 92-25 25-58 37-92 37h-175c-33 0-66-12-91-37-21-25-38-58-38-92v-46h-175c-25 0-42-16-42-41s17-42 42-42h46v-525c0-33 12-67 37-92 25-25 59-37 92-37h438c33 0 66 12 91 37 25 25 38 59 38 92v525h46c25 0 41 17 41 42s-21 41-46 41z m-525 46c0 13 5 25 13 34s21 12 33 12h175c13 0 25-4 34-12 8-9 12-21 12-34v-46h-267v46z m396-654c0-12-4-25-12-33-9-9-21-13-34-13h-433c-12 0-25 4-33 13s-13 21-13 33v525h525v-525z m-108 88c25 0 42 16 42 41v200c0 25-17 42-42 42s-42-17-42-42v-200c0-21 17-41 42-41z m-154 0c25 0 41 16 41 41v200c0 25-16 42-41 42-25 0-42-17-42-42v-200c0-21 21-41 42-41z m-154 0c25 0 41 16 41 41v200c0 25-16 42-41 42s-42-17-42-42v-200c0-21 21-41 42-41z" horiz-adv-x="1000" />

<glyph glyph-name="ic-vat-filled" unicode="&#xe886;" d="M418 268c6 6 6 14 3 20-3 3-6 6-9 6-15 3-24-17-12-26 3-6 12-6 18 0z m123-100c-6 3-6 3-12 0-5-3-8-6-8-15 0-18 26-21 29-3 3 6-3 15-9 18z m294-53c0 182 0 176-11 214-30 106-112 189-215 224-12 3-21 6-21 6 0 3 6 9 9 9 3 0 9-3 18-9 35-18 62-12 88 15 12 11 15 14 24 17 11 3 20 3 35-6 12-8 35-14 44-11 3 0 3 3 0 14-3 9-3 15-3 15 0 0-6 0-12 3-6 0-14 6-20 9-12 9-30 12-42 12-20-3-29-9-47-24-14-15-17-18-23-18-12-3-15 0-6 3 18 9 35 30 38 50 3 15 9 24 18 33 6 6 9 6 26 6 18 0 21 2 33 5 6 3 11 6 11 9 0 0-5 6-8 12l-9 12-6-3c-3-3-12-3-27-6-17 0-23-3-32-6-20-9-32-26-38-53-3-23-15-32-38-32-9 0-18 0-21-3-9-3-9-3-18 9l-8 8 35 71c20 38 35 74 35 77 0 5-9 14-17 14-9 0-18 3-30 12-15 15-23 18-47 18-23 0-32-3-44-12-27-21-44-21-68-3-14 12-26 15-47 15-14 0-20 0-29-6-6-3-15-9-21-12-12-9-20-12-29-12-6 0-15-9-15-14 0-3 18-36 35-77l36-71-9-8c-15-15-18-33-12-50 3-6 3-9 3-9 0 0-9-3-18-6-108-35-191-124-217-235-9-33-9-42-9-212 0-153 0-162 3-171 9-26 32-47 62-53 8-6 91-6 306-6 282 0 297 0 305 3 24 9 42 30 50 50 3 15 3 18 3 183z m-450 485c3 0 42 3 89 0l82 0 6-6c6-6 6-15 0-20l-3-3h-88-89l-3 6c-5 8-2 20 6 23z m309-438c-26-103-117-171-223-171-106 0-197 71-224 171-6 17-6 20-6 56 0 35 0 38 6 59 27 91 103 158 197 170 18 3 50 0 68-3 44-9 91-32 123-65 36-35 59-82 65-126 3-26 0-71-6-91z m-97 182c-26 27-62 44-97 50-12 3-38 3-53 3-73-9-135-62-153-132-3-15-3-18-3-44 0-27 0-33 3-44 21-80 94-136 177-136 82 0 153 56 176 136 6 17 6 52 3 70-6 32-26 71-53 97z m-235-50c6 15 17 27 32 33 9 2 21 2 30 0 38-15 41-71 5-89-11-6-23-6-35-3-12 3-26 18-29 30-6 14-6 17-3 29z m215-162c-9-17-24-23-42-23-14 0-23 3-35 15-9 11-12 17-12 35 0 18 9 29 21 35 6 3 12 6 15 6 5 0 23 0 29-3 26-12 35-41 24-65z m-192-35l-35 35 206 206 35-35-206-206z" horiz-adv-x="941" />

<glyph glyph-name="ic-free-truck" unicode="&#xe887;" d="M997 331l-93 219c-3 5-7 10-12 14-5 3-11 5-17 5h-94v62c0 9-3 17-9 22-6 6-14 10-22 10h-469c-17 0-31-14-31-32 0-17 14-31 31-31h438v-392c-14-9-27-20-37-33-10-13-17-28-21-44h-197c-7 30-25 55-51 73-25 17-55 24-85 20-31-4-58-18-78-41-21-23-32-53-32-83 0-30 11-60 32-83 20-23 47-37 78-41 30-4 60 3 85 20 26 18 44 43 51 73h197c7-27 22-51 44-68 22-17 49-26 76-26 28 0 55 9 77 26 21 17 37 41 44 68h67c8 0 16 3 22 9 6 6 9 14 9 22v219c0 4-1 8-3 12z m-653-293c-13 0-25 3-35 10-10 7-18 17-23 28-5 12-6 24-4 36 3 12 9 24 18 32 8 9 19 15 32 17 12 3 24 2 36-3 11-5 21-13 28-23 7-11 10-23 10-35 0-17-6-32-18-44-12-12-28-18-44-18z m437 468h73l67-156h-140v156z m0-468c-12 0-24 3-34 10-11 7-19 17-23 28-5 12-6 24-4 36 2 12 8 24 17 32 9 9 20 15 32 17 12 3 25 2 36-3 12-5 21-13 28-23 7-11 11-23 11-35 0-17-7-32-19-44-11-12-27-18-44-18z m157 93h-36c-7 27-23 51-44 68-22 17-49 26-77 26v63h157v-157z m-771 375c0 12 9 21 21 21h62c12 0 21-9 21-21 0-11-9-21-21-21h-42v-26h42c12 0 21-9 21-20 0-12-9-21-21-21h-42v-47c0-12-9-21-20-21-12 0-21 9-21 21v135z m250 0c0 12 9 21 21 21h62c12 0 21-9 21-21 0-11-9-21-21-21h-42v-26h42c12 0 21-9 21-20 0-12-9-21-21-21h-42v-26h42c12 0 21-10 21-21 0-12-9-21-21-21h-62c-12 0-21 9-21 21v135z m125 0c0 12 9 21 21 21h62c12 0 21-9 21-21 0-11-9-21-21-21h-42v-26h42c12 0 21-9 21-20 0-12-9-21-21-21h-42v-26h42c12 0 21-10 21-21 0-12-9-21-21-21h-62c-12 0-21 9-21 21v135z m-250 0c0 12 9 21 21 21h62c12 0 21-9 21-21v-67c0-12-9-21-21-21h-15l30-33c8-8 8-22-1-29-8-8-21-8-29 1l-27 28v-14c0-12-9-21-20-21-12 0-21 9-21 21v135z m41-47v26h21v-26h-21z" horiz-adv-x="1000" />

<glyph glyph-name="ic-generic-icon" unicode="&#xe888;" d="M120 850c-66 0-120-54-120-120v-610c0-65 54-119 120-119h441c66 0 120 54 120 119v461 2a36 36 0 0 1-1 5 36 36 0 0 1-1 8 36 36 0 0 1 0 1 36 36 0 0 1-4 5 36 36 0 0 1-3 5l-1 1-209 230a36 36 0 0 1-1 1 36 36 0 0 1-23 10 36 36 0 0 1-2 1 36 36 0 0 1-1 0z m0-71h280v-154c0-42 35-78 77-78h133v-427c0-27-21-48-49-48h-441c-27 0-48 21-48 48v610c0 27 21 49 48 49z m351-57l94-103h-88c-4 0-6 2-6 6z m-288-293a36 36 0 0 1-36-35 36 36 0 0 1 36-36h315a36 36 0 0 1 36 36 36 36 0 0 1-36 35z m0-168a36 36 0 0 1-36-35 36 36 0 0 1 36-36h315a36 36 0 0 1 36 36 36 36 0 0 1-36 35z m0 337a36 36 0 0 1-36-36 36 36 0 0 1 36-36h126a36 36 0 0 1 36 36 36 36 0 0 1-36 36z m607-120a36 36 0 0 1-36-36v-388c0-74-59-133-132-133h-383a36 36 0 0 1-36-35 36 36 0 0 1 36-36h383c112 0 204 92 204 204v388a36 36 0 0 1-36 36z" horiz-adv-x="826" />

<glyph glyph-name="ic-star-filled-25" unicode="&#xe88b;" d="M958 438c-8 16-20 29-33 29l-267 37-120 242c-5 8-9 12-17 17-4 0-13 4-21 4s-17 0-21-4c-8-5-12-9-16-17l-121-242-267-37c-8 0-17-4-21-9-4-8-8-12-12-20 0-9 0-17 0-21 4-9 8-13 12-21l192-183-46-267c0-9 0-17 0-25 4-9 8-13 17-17 8-4 12-8 21-8 8 0 16 0 25 4l237 125 238-125c8-4 12-4 20-4 9 0 17 0 25 4 9 4 13 12 17 17 4 8 4 16 0 25l-46 266 192 188c4 4 12 12 12 21 5 4 5 12 0 21z m-279-184c-4-4-8-12-12-16-4-9-4-13 0-21l37-204-183 95c-4 5-13 9-21 9s-12-4-21-9l-79-41v375c0 4 4 4 4 8l96 183 92-187c8-8 21-21 33-21l204-29-150-142z" horiz-adv-x="1000" />

<glyph glyph-name="ic-star-filled-50" unicode="&#xe88c;" d="M958 438c-8 16-20 29-33 29l-267 37-120 242c-5 8-9 12-17 17-4 0-13 4-21 4s-17 0-21-4c-8-5-12-9-16-17l-121-242-267-37c-8 0-17-4-21-9-4-8-8-12-12-20 0-9 0-17 0-21 4-9 8-13 12-21l192-183-46-267c0-9 0-17 0-25 4-9 8-13 17-17 8-4 12-8 21-8 8 0 16 0 25 4l237 125 238-125c8-4 12-4 20-4 9 0 17 0 25 4 9 4 13 12 17 17 4 8 4 16 0 25l-46 266 192 188c4 4 12 12 12 21 5 4 5 12 0 21z m-279-184c-4-4-8-12-12-16-4-9-4-13 0-21l37-204-183 95c-4 5-13 9-21 9 0 0-4 0-4 0v512l0 4 92-187c8-8 20-21 33-21l204-29-146-142z" horiz-adv-x="1000" />

<glyph glyph-name="ic-star-filled-75" unicode="&#xe88d;" d="M958 438c-8 16-20 29-33 29l-267 37-120 242c-5 8-9 12-17 17-4 0-13 4-21 4s-17 0-21-4c-8-5-12-9-16-17l-121-242-267-37c-8 0-17-4-21-9-4-8-8-12-12-20 0-9 0-17 0-21 4-9 8-13 12-21l192-183-46-267c0-9 0-17 0-25 4-9 8-13 17-17 8-4 12-8 21-8 8 0 16 0 25 4l237 125 238-125c8-4 12-4 20-4 9 0 17 0 25 4 9 4 13 12 17 17s4 16 0 25l-46 266 192 188c4 4 12 12 12 21 5 4 5 12 0 21z m-279-184c-4-4-8-12-12-16s-4-13 0-21l37-204-96 50v370c5-4 13-8 17-8l204-29-150-142z" horiz-adv-x="1000" />

<glyph glyph-name="ic-vat-pdp" unicode="&#xe88e;" d="M857 124c0 188 0 182-12 221-30 109-115 194-221 230-12 3-21 6-21 6 0 3 6 9 9 9 3 0 9-3 18-9 37-18 64-12 91 15 12 12 15 15 24 18 12 3 21 3 37-6 12-9 36-15 45-12 3 0 3 3 0 15-3 9-3 15-3 15 0 0-6 0-12 3-6 0-15 6-21 9-12 9-31 12-43 12-21-3-30-9-48-24-15-15-18-18-24-18-12-3-15 0-6 3 18 9 36 30 39 52 3 15 9 24 18 33 6 6 9 6 27 6 19 0 22 3 34 6 6 3 12 6 12 9 0 0-6 6-9 12l-9 12-6-3c-3-3-13-3-28-6-18 0-24-3-33-6-21-9-33-27-39-54-3-25-15-34-40-34-9 0-18 0-21-3-6-2-12 1-18 9l-9 9 36 73c22 39 37 76 37 79 0 6-9 15-19 15-9 0-18 3-30 12-15 15-24 18-48 18-24 0-33-3-46-12-27-21-45-21-69-3-15 12-27 15-48 15-16 0-22 0-31-6-6-3-15-9-21-12-12-9-21-12-30-12-6 0-15-9-15-15 0-3 18-37 36-79l36-73-9-9c-15-15-18-33-12-51 3-6 3-9 3-9 0 0-9-3-18-6-112-36-197-127-224-242-9-33-9-42-9-218 0-157 0-166 3-175 9-28 33-49 64-55 9-6 93-6 314-6 291 0 306 0 315 3 24 9 42 30 51 52 3 15 3 18 3 187z m-463 499c4 0 43 3 91 0h85l6-6c6-6 6-15 0-21l-3-3h-182l-3 6c-6 9-3 21 6 24v0z m318-450c-27-106-121-176-230-176-109 0-202 73-230 176-6 18-6 21-6 57 0 36 0 39 6 61 28 93 106 163 203 175 18 3 51 0 70-3 45-9 93-33 127-67 36-36 60-84 66-130 3-27 0-72-6-93v0z m-45 87c-6 34-28 73-55 100-27 27-63 45-100 52-12 3-39 3-54 3-76-10-139-64-157-137-3-15-3-18-3-45 0-27 0-33 3-45 21-82 97-139 181-139 85 0 157 57 182 139 6 18 6 54 3 72z m-171 1c6 0 10-5 10-11 0-6-4-11-10-11h-55c0-3 0-6 0-9 0-3 0-6 0-9h55c6 0 10-5 10-11 0-6-4-10-10-10h-51c8-25 26-38 50-38 11 0 21 4 30 10 8 7 21 9 29 2 7-6 9-16 3-23-16-17-36-26-63-26-47 0-79 28-89 74h-9c-6 0-11 5-11 11 0 6 5 11 11 11h6c0 3 0 6 0 9 0 3 0 6 0 9h-6c-6 0-11 5-11 11 0 6 5 11 11 11h9c10 47 42 75 89 75 25 0 47-10 63-27 6-6 4-17-3-23-8-7-21-5-30 2-9 7-19 10-30 10-23 0-41-13-49-37h51v0z" horiz-adv-x="964" />

<glyph glyph-name="ic-vat-pdp-fail" unicode="&#xe88f;" d="M500 850c-276 0-500-224-500-500 0-276 224-500 500-500 276 0 500 224 500 500 0 276-224 500-500 500z m0-934c-239 0-434 194-434 434 0 240 195 434 434 434 239 0 434-194 434-434 0-240-194-434-434-434v0z m5 134c39 0 71 32 71 71 0 40-32 72-71 72-40 0-72-32-72-72 0-39 32-71 72-71z m-72 529c0 39 32 71 72 71v0c39 0 71-32 71-71v-258c0-39-32-71-71-71v0c-40 0-72 32-72 71v258z" horiz-adv-x="1000" />

<glyph glyph-name="ic-vat-pdp-success" unicode="&#xe890;" d="M500 850c-276 0-500-224-500-500 0-276 224-500 500-500 276 0 500 224 500 500 0 276-224 500-500 500z m0-934c-239 0-434 194-434 434 0 240 195 434 434 434 239 0 434-194 434-434 0-240-194-434-434-434v0z m196 650c28 28 73 28 101 0v0c28-28 28-73 0-101l-327-327c-27-28-73-28-101 0v0c-27 28-27 73 0 101l327 327z m-513-235c-27 28-27 73 2 101v0c28 27 73 26 101-2l179-186c27-28 27-73-2-101v0c-28-27-73-26-101 2l-179 186z" horiz-adv-x="1000" />

<glyph glyph-name="ic-truck-delivery" unicode="&#xe891;" d="M997 331l-94 219c-3 6-6 9-12 13-3 3-10 6-16 6h-94v62c0 10-3 16-9 22-6 6-13 10-22 10h-469c-18 0-31-13-31-32s13-31 31-31h438v-394c-16-9-28-18-38-31-9-12-18-28-22-44h-196c-7 28-25 57-50 72-25 16-57 25-85 22-31-3-59-19-78-41-22-25-31-53-31-84 0-31 12-59 31-81 19-22 47-38 78-41 31-3 60 3 85 22 25 16 43 44 50 72h196c7-28 22-50 44-69 22-16 50-25 75-25 28 0 53 9 75 25 22 16 38 41 44 69h72c9 0 15 3 22 9 6 7 9 13 9 22v219c0 0 0 6-3 9z m-653-293c-13 0-25 3-35 9-9 6-18 16-21 28-7 13-7 25-7 38 3 12 10 21 16 31 9 9 19 15 31 15 13 4 25 0 38-3 12-6 22-12 28-22 6-9 9-21 9-34 0-16-6-31-19-44-9-12-25-18-40-18z m437 468h72l66-156h-138v156z m0-468c-12 0-25 3-34 9-9 6-19 16-22 28-6 13-6 25-6 38 3 12 9 21 15 31s19 15 32 15c12 4 25 0 37-3 13-6 22-12 28-22 7-9 10-21 10-34 0-16-7-31-19-44-9-12-25-18-41-18z m157 93h-35c-6 28-22 50-44 69-25 16-50 25-78 25v63h157v-157z m-910 313h228c13 0 25-13 25-28v0c0-16-12-28-28-28h-225c-15 0-28 12-28 28v0c0 15 13 28 28 28z m60-94h353c15 0 28-12 28-28l0 0c0-16-13-28-28-28h-353c-16 0-25 12-25 28l0 0c0 16 12 28 25 28z m0 188h290c16 0 28-13 28-29v0c0-15-12-28-28-28h-290c-16 0-25 13-25 28v0c0 16 12 29 25 29z m-60-282h166c12 0 25-12 25-28l0 0c0-15-13-28-25-28h-166c-15 0-28 13-28 28l0 0c0 16 13 28 28 28z" horiz-adv-x="1000" />

<glyph glyph-name="ic-apple" unicode="&#xe893;" d="M654 825c-3 2-81-1-149-70-68-69-58-147-56-149 1-2 97-6 158 74 61 80 49 142 47 145z m211-697c-3 6-148 73-135 203 14 130 107 166 109 170 1 3-38 46-80 68-31 16-65 24-100 26-7 0-31 6-80-7-33-8-106-35-126-36-20-1-81 31-145 40-42 7-85-8-117-20-31-12-91-45-132-133-42-88-20-227-5-270 16-44 40-115 82-166 36-59 85-100 106-113 20-14 78-23 118-4 32 18 90 29 112 28 23-1 68-9 114-32 37-12 71-7 106 6 35 13 85 63 143 164 22 47 32 72 30 76z" horiz-adv-x="900" />

<glyph glyph-name="ic-speed" unicode="&#xe894;" d="M875 850c133 0 260-53 354-146 93-94 146-221 146-354 0-133-53-260-146-354-94-93-221-146-354-146-133 0-260 53-354 146-93 94-146 221-146 354 0 133 53 260 146 354 94 93 221 146 354 146z m0-125c-99 0-195-39-265-110-70-70-110-165-110-265 0-99 40-195 110-265 70-70 166-110 265-110 100 0 195 40 265 110 71 70 110 166 110 265 0 100-39 195-110 265-70 71-165 110-265 110z m-62-125h93v-236l146-146-66-66-173 173v275z m-750-625c-17 0-33 7-45 18-11 12-18 28-18 45 0 16 7 32 18 44 12 11 28 18 45 18h239c19-44 44-86 73-125h-312z m62 313c-17 0-32 6-44 18-12 12-18 27-18 44 0 17 6 33 18 44 12 12 27 19 44 19h128l-3-63 3-62h-128z m63 312c-17 0-33 7-45 18-11 12-18 28-18 45 0 16 7 32 18 44 12 11 28 18 45 18h187c-29-39-54-81-73-125h-114z" horiz-adv-x="1375" />

<glyph glyph-name="ic-map" unicode="&#xe895;" d="M856 719c-12 6-25 6-31 0l-212-131-250 131c0 6-7 6-13 6s-12 0-19-6l-231-144c-12-6-19-19-19-31v-575c0-13 7-25 19-32 13-6 25-6 31 0l219 138 250-138c13-6 25-6 31 0l232 144c12 7 18 19 18 32v575c-6 12-12 25-25 31z m-543-588l-163-100v494l163 100v-494z m262-106l-200 106v500l200-106v-500z m231 106l-162-100v494l162 100v-494z" horiz-adv-x="1000" />

<glyph glyph-name="ic-free_parking" unicode="&#xe896;" d="M63 38h62v200h263v62h-263v206h306v63h-368v-531z m443 0h57v200c0 93 56 150 118 150 19 0 38-7 57-13v63c-13 6-32 6-50 6-63 0-107-31-132-69v63h-50v-400z m694 200c0 125-69 212-206 212-119 0-206-81-206-212 0-132 87-213 212-213 88 0 150 31 188 81l-44 38c-31-38-81-63-138-63-81 0-143 50-156 138h350v19z m-212 156c87 0 137-50 143-125h-287c12 81 75 125 144 125z m681-156c0 125-69 212-206 212-119 0-207-81-207-212 0-132 88-213 213-213 87 0 150 31 187 81l-43 38c-32-38-82-63-138-63-81 0-144 50-156 138h350v19z m-206 156c87 0 137-50 143-125h-287c12 81 69 125 144 125z m1050 119c-19 18-38 37-63 43-12 7-50 7-100 7h-137v-419h81v156h56c38 0 69 0 88 6 12 0 31 7 43 19 19 13 32 25 38 38 6 18 12 37 12 62 7 38-6 63-18 88z m-75-113c-7-12-13-19-25-19-13-6-32-6-69-6h-44v113h44c31 0 50 0 62-7 13 0 25-6 32-18 6-13 12-25 12-38 0-6-6-19-12-25z m75 113c-19 18-38 37-63 43-12 7-50 7-100 7h-137v-419h81v156h56c38 0 69 0 88 6 12 0 31 7 43 19 19 13 32 25 38 38 6 18 12 37 12 62 7 38-6 63-18 88z m-75-113c-7-12-13-19-25-19-13-6-32-6-69-6h-44v113h44c31 0 50 0 62-7 13 0 25-6 32-18 6-13 12-25 12-38 0-6-6-19-12-25z m75 113c-19 18-38 37-63 43-12 7-50 7-100 7h-137v-419h81v156h56c38 0 69 0 88 6 12 0 31 7 43 19 19 13 32 25 38 38 6 18 12 37 12 62 7 38-6 63-18 88z m-75-113c-7-12-13-19-25-19-13-6-32-6-69-6h-44v113h44c31 0 50 0 62-7 13 0 25-6 32-18 6-13 12-25 12-38 0-6-6-19-12-25z m-63 381c-237 0-431-193-431-431s194-431 431-431 431 194 431 431-193 431-431 431z m0-794c-200 0-362 163-362 363s162 363 362 363 363-163 363-363-163-363-363-363z" horiz-adv-x="2875" />

<glyph glyph-name="ic-tiktok" unicode="&#xe897;" d="M561 117c-3-77-73-139-158-139-19 0-38 4-56 9 18-6 37-9 56-9 86 0 155 62 158 139v689h139c13-65 56-121 115-157 41-24 91-39 143-39v-38-134c-97 0-188 29-262 77v-349c0-174-156-317-348-317-74 0-143 22-199 58-90 57-149 152-149 259 0 174 156 317 348 317 16 0 31-1 47-3v-41c-175-3-318-125-338-281 20 155 163 278 338 281v-135c-15 5-31 7-47 7-88 0-159-64-159-144 0-56 34-104 85-128 22-11 47-17 74-17 86 0 155 62 158 139v689h189c0-15 2-29 4-44h-138v-689 0z" horiz-adv-x="958" />

<glyph glyph-name="ic-spotify" unicode="&#xe898;" d="M500 848c-275 0-498-223-498-498 0-275 223-499 498-499 275 0 499 224 499 499 0 275-224 498-499 498l0 0v0z m229-719c-9-14-28-19-43-10-117 72-264 88-438 48-17-4-33 7-37 24-4 16 6 33 23 37 190 43 353 25 484-56 15-9 20-28 11-43v0z m61 136c-12-18-36-24-54-13-134 83-338 107-497 59-20-7-42 5-48 25-6 21 5 43 26 49 181 55 406 28 560-66 18-12 24-36 13-54v0z m5 142c-161 95-426 104-579 57-25-7-51 7-58 31-8 25 6 51 31 58 176 54 468 44 653-66 23-13 30-42 17-64-13-22-42-30-64-16h0z" horiz-adv-x="1000" />

<glyph glyph-name="ic-linkedin" unicode="&#xe899;" d="M889 850c29 0 58-12 79-32 20-21 32-50 32-79v-778c0-29-12-58-32-79-21-20-50-32-79-32h-778c-29 0-58 12-78 32-21 21-33 50-33 79v778c0 29 12 58 33 79 20 20 49 32 78 32h778z m-28-861v294c0 48-19 94-53 128-34 34-80 53-128 53-47 0-102-28-129-72v62h-155v-465h155v274c0 43 35 78 77 78 21 0 41-9 55-23 15-15 23-35 23-55v-274h155z m-645 552c24 0 48 10 66 27 17 18 27 42 27 66 0 52-42 94-93 94-25 0-49-10-67-27-17-18-27-42-27-67 0-51 42-93 94-93z m77-552v465h-154v-465h154z" horiz-adv-x="1000" />

<glyph glyph-name="ic-facebook" unicode="&#xe89a;" d="M1000 349c0 276-224 501-500 501-276 0-500-225-500-501 0-243 172-445 400-492v341h-100v151h100v125c0 97 79 176 175 176h125v-151h-100c-27 0-50-22-50-50v-100h150v-151h-150v-348c253 25 450 239 450 499z" horiz-adv-x="1000" />

<glyph glyph-name="ic-youtube-new" unicode="&#xe89b;" d="M561 149l364 210-364 211v-421z m810 549c9-33 15-77 20-133 5-56 7-105 7-147l4-59c0-153-11-266-31-338-18-63-58-104-121-121-33-10-93-16-186-20-91-5-175-7-252-7l-111-4c-294 0-477 11-549 31-63 17-104 58-121 121-9 33-16 77-20 133-5 56-7 104-7 147l-4 58c0 154 11 267 31 339 17 63 58 104 121 121 33 9 93 16 186 20 91 5 174 7 251 7l112 4c294 0 477-11 549-31 63-17 103-58 121-121v0z" horiz-adv-x="1438" />

<glyph glyph-name="ic-blogger-new" unicode="&#xe89c;" d="M997 424c-4 18-15 35-28 42-4 2-29 5-56 6-44 2-49 3-63 11-23 13-29 27-29 66 0 74-31 142-92 204-43 44-91 73-146 90-13 4-43 5-141 7-155 1-189-2-242-23-97-38-167-120-193-225-4-19-5-51-7-231-1-227 1-260 15-305 12-37 23-60 48-92 46-62 115-106 185-119 33-6 440-7 482-1 73 9 129 38 183 93 38 39 63 82 78 139 7 23 7 35 9 173 1 104 0 153-3 165z m-719 142c17 18 22 19 131 19 98 0 102-1 116-8 21-10 30-25 30-49 0-21-9-36-28-48-10-6-16-7-112-7-59-1-106 1-113 2-37 11-51 64-24 91z m428-446l-33-5-173-2c-152-2-195 1-203 4-16 7-31 26-33 44-3 16 5 38 18 50 16 14 23 14 217 15 200 0 199 0 218-18 27-25 21-69-11-88z" horiz-adv-x="1000" />

<glyph glyph-name="ic-twitter-new" unicode="&#xe89d;" d="M1200 732c-44-20-92-34-141-40 50 31 89 80 108 140-48-30-101-50-156-62-46 51-109 80-182 80-134 0-244-113-244-252 0-20 2-40 6-58-204 11-386 111-507 264-21-37-33-81-33-127 0-88 43-165 109-209-41 0-78 11-112 29v-2c0-122 85-224 198-247-37-10-74-12-111-4 15-51 46-94 87-126 41-31 91-49 142-50-87-70-195-109-305-108-20 0-39 1-59 3 109-71 239-113 377-113 452 0 701 385 701 718 0 11 0 22-1 33 48 36 90 80 123 131z" horiz-adv-x="1200" />

<glyph glyph-name="ic-instagram-new" unicode="&#xe89e;" d="M500 563c-42 0-83-12-118-36-35-23-63-57-79-95-16-39-20-82-12-123 8-42 29-80 58-110 30-29 68-50 110-58 41-8 84-4 123 12 38 16 72 44 95 79 24 35 36 76 36 118 0 57-22 111-62 151-40 40-94 62-151 62z m0-315c-20 0-40 6-57 17-16 12-29 27-37 46-8 19-10 39-6 59 4 20 14 38 28 52 14 14 32 24 52 28 20 4 40 2 59-6 19-8 35-21 46-37 11-17 17-37 17-57 0-27-11-53-30-72-19-19-45-30-72-30z m222 602h-444c-74 0-144-29-197-81-52-52-81-123-81-197v-444c0-74 29-145 81-197 53-52 123-81 197-81h444c74 0 145 29 197 81 52 52 81 123 81 197v444c0 74-29 145-81 197-52 52-123 81-197 81z m167-722c0-44-18-87-49-118-31-31-74-49-118-49h-444c-44 0-87 18-118 49-31 31-49 74-49 118v444c0 44 18 87 49 118 31 31 74 49 118 49h444c44 0 87-18 118-49 31-31 49-74 49-118v-444z m-74 463c0-15-4-29-13-41-8-13-19-22-33-28-13-5-28-7-43-4-14 3-27 10-38 20-10 11-17 24-20 38-3 15-1 30 4 43 6 14 15 25 28 33 12 9 26 13 41 13 19 0 38-8 52-22 14-14 22-33 22-52z" horiz-adv-x="1000" />

<glyph glyph-name="ic-hexa-icon" unicode="&#xe89f;" d="M783 513c0 4 0 4-4 4-4 4-4 4-4 8-8 8-17 17-25 25l-204 121c-17 8-29 12-46 12s-29-4-46-12l-200-121c-12-8-21-12-29-25 0-4-4-4-4-8 0 0-4 0-4-4-4-13-9-30-9-42v-242c0-16 5-29 13-46 8-12 17-25 29-33l204-121c9-4 21-8 29-8 9-4 13-4 17-4 4 0 8 4 17 4 8 4 21 4 29 8l204 121c13 8 25 21 29 33 9 13 13 30 13 46v242c0 12-4 29-9 42z m-300 104c5 4 9 4 17 4 4 0 8 0 17-4l187-113-204-121-204 121 187 113z m-200-413c-4 4-8 4-8 9-4 4-4 8-4 12v229l204-121v-241l-192 112z m434 0l-188-112v241l204 121v-225c0-4 0-8-4-12-4-9-8-9-12-13z m200-71c16 0 33-16 33-33v-167c0-16-17-33-33-33h-167c-17 0-33 17-33 33 0 17 16 34 33 34h133v133c0 17 17 33 34 33z m0 434c16 0 33 16 33 33v167c0 16-17 33-33 33h-167c-17 0-33-17-33-33s16-34 33-34h133v-133c0-17 17-33 34-33z m-834-434c-16 0-33-16-33-33v-167c0-16 17-33 33-33h167c17 0 33 17 33 33 0 17-16 34-33 34h-133v133c0 17-17 33-34 33z m0 434c-16 0-33 16-33 33v167c0 16 17 33 33 33h167c17 0 33-17 33-33s-16-34-33-34h-133v-133c0-17-17-33-34-33z" horiz-adv-x="1000" />

<glyph glyph-name="ic-header-arrow" unicode="&#xe8a0;" d="M500-150c-9 0-19 1-27 5-9 4-17 9-23 16l-429 429c-6 7-12 14-15 23-4 8-6 18-6 27 0 9 2 19 6 27 3 9 9 17 15 23l429 429c13 13 31 20 50 20 19 0 36-8 50-21 13-13 20-31 20-49 0-19-7-37-20-50l-379-379 379-379c7-6 12-14 16-22 4-9 5-18 5-28 0-9-1-18-5-27-4-8-9-16-16-23-6-7-14-12-23-16-8-4-18-5-27-5v0z" horiz-adv-x="571" />

<glyph glyph-name="ic-tab-wallet" unicode="&#xe8a1;" d="M675 544h-331c-22 0-41-10-56-22-16-16-22-34-25-53v-260c0-18 9-40 25-53s34-22 56-22h334c22 0 41 10 56 22 16 16 22 35 25 53v260c0 22-9 40-25 53-18 12-37 22-59 22z m-331-41h334c6 0 10 0 13-3 3-3 9-3 12-6 3-3 6-6 10-13 3-3 3-9 3-12v-56h-100c-22 0-41-10-57-22-15-16-21-35-21-53 0-19 9-41 21-54 16-15 35-21 57-21h97v-54c0-3 0-9-4-12s-3-9-9-13c-3-3-6-6-12-6-4-3-10-3-13-3h-331c-6 0-10 0-13 3-3 3-9 3-12 6-3 4-6 7-6 10-4 3-4 9-4 12v260c0 3 0 9 4 12 3 3 3 10 9 13 3 3 6 6 12 6 0 6 7 6 10 6z m272-128h100v-69h-100c-10 0-19 3-25 10-7 6-10 15-10 25 0 9 3 18 10 25 6 3 15 9 25 9z m-16-37c0 9 6 12 16 12h22c9 0 12-6 12-16s-6-12-16-12h-21c-4 0-7 3-10 6-3 3-3 6-3 10z m-84-488c-275 0-500 225-500 500 0 275 225 500 500 500 275 0 500-225 500-500 0-275-225-500-500-500z m0 963c-253 0-463-210-463-463 0-253 206-463 463-463 253 0 462 207 462 463 0 253-209 463-462 463z" horiz-adv-x="1031" />

<glyph glyph-name="ic-tab-eye" unicode="&#xe8a2;" d="M509 166c-153 0-240 168-246 175 0 3-4 6-4 9 0 3 0 6 4 9 3 7 90 175 246 175 154 0 241-168 247-175 0-3 3-6 3-9 0-3 0-6-3-9-6-7-90-175-247-175z m-200 184c19-31 94-144 204-144 109 0 184 113 203 144-19 31-94 144-203 144-113 0-185-113-204-144z m200-81c-15 0-31 6-46 12-13 10-25 22-32 38-6 15-6 31-3 47 3 15 13 31 22 40 13 13 25 19 41 22 15 3 31 0 47-3 15-6 28-16 37-31 13-13 19-28 19-44 0-22-10-44-25-56-16-16-38-25-60-25z m0 122c-9 0-15-3-21-7-7-3-13-12-16-18-3-7-3-16-3-25 3-10 6-16 12-22 7-6 13-10 22-13 10-3 16 0 25 3 6 4 16 10 19 16s6 16 6 22c0 6 0 9-3 16-3 6-6 9-9 12-3 3-10 6-13 9s-12 7-19 7z m0-541c-275 0-500 225-500 500 0 275 225 500 500 500 275 0 500-225 500-500 0-275-221-500-500-500z m0 963c-253 0-459-210-459-463 0-253 206-463 463-463s459 210 459 463c0 253-206 463-463 463z" horiz-adv-x="1031" />

<glyph glyph-name="ic-tab-bullet" unicode="&#xe8a3;" d="M522 850c-275 0-500-225-500-500s225-500 500-500 500 225 500 500-225 500-500 500z m0-637c-78 0-138 62-138 137s63 138 138 138c78 0 137-63 137-138s-62-137-137-137z" horiz-adv-x="1031" />

<glyph glyph-name="ic-youtube-cy" unicode="&#xe8a4;" d="M416 216l242 140-242 140v-280z m540 366c6-22 10-51 13-89 3-37 4-69 4-97l3-40c0-102-7-177-20-225-12-42-39-70-81-81-22-6-62-10-124-13-61-4-116-5-168-5l-74-3c-196 0-318 8-366 21-42 11-69 39-81 81-6 22-10 51-13 88-3 38-4 70-4 98l-3 39c0 103 7 178 20 226 12 42 39 69 81 81 22 6 62 10 124 13 61 3 116 5 168 5l74 2c196 0 318-7 366-20 42-12 69-39 81-81v0z" horiz-adv-x="1000" />

<glyph glyph-name="ic-filter-new" unicode="&#xe8a5;" d="M625-25c-54 0-100 33-117 83 0 0-4 0-4 0h-333c-25 0-42 17-42 42s17 42 42 42h333c0 0 4 0 4 0 17 50 63 83 117 83 54 0 100-33 117-83h91c25 0 42-17 42-42s-17-42-42-42h-91c-17-50-63-83-117-83z m0 167c-25 0-42-17-42-42s17-42 42-42 42 17 42 42-17 42-42 42z m-246 83c-54 0-100 33-116 83h-92c-25 0-42 17-42 42s17 42 42 42h92c16 50 62 83 116 83s100-33 117-83h342c25 0 41-17 41-42s-16-42-41-42h-342c-17-50-63-83-117-83z m0 167c-25 0-41-17-41-42s16-42 41-42 42 17 42 42-21 42-42 42z m246 83c-54 0-100 33-117 83h-341c-25 0-42 17-42 42s17 42 42 42h341c17 50 63 83 117 83s100-33 117-83h91c25 0 42-17 42-42s-17-42-42-42h-91c-17-50-63-83-117-83z m0 167c-25 0-42-17-42-42s17-42 42-42 42 17 42 42-17 42-42 42z" horiz-adv-x="1000" />

<glyph glyph-name="ic-accessibility" unicode="&#xe8a6;" d="M381-108c-19 3-38 5-56 11-66 18-117 57-155 115-30 46-45 97-45 152 0 80 29 149 87 204 28 28 61 48 99 61 2 1 5 2 9 3 0-27 0-54 0-80 0-3-4-6-7-8-48-25-82-63-100-116-36-106 27-226 134-255 102-28 203 27 238 130 2 5 4 6 10 7 16 3 26-3 32-20 4-12 12-23 17-36 2-3 2-8 1-12-46-90-119-142-218-155-2 0-4-1-6-1h-40 0z m81 916c17-4 33-11 47-23 39-33 39-101 0-134-42-36-97-30-131 14-34 46-12 120 42 138 7 2 13 4 19 5 7 0 15 0 23 0z m66-418c37 0 72 1 108 0 9 0 18 1 27 0 20-2 34-18 35-38 1-18-14-37-32-40-4-1-8-1-13-1-38 0-76 0-114 0h-10v-36h10c45 0 90 0 135 1 26 0 44-11 56-35 37-76 76-152 113-228 14-28 8-56-13-71-28-20-62-11-78 20-17 33-33 66-50 100-16 33-33 66-50 100-2 6-6 7-12 7-61 0-122 0-183 0-19 0-37 5-53 17-21 16-32 39-32 66 0 85 0 171 0 257 1 67 69 99 118 70 26-16 38-41 38-72 1-35 0-70 0-106 0-3 0-6 0-11l0 0z" horiz-adv-x="1000" />

<glyph glyph-name="ic-car_front" unicode="&#xe8a7;" d="M788 600c-8 24-31 42-59 42h-458c-28 0-51-18-59-42l-87-250v-333c0-23 19-42 42-42h41c23 0 42 19 42 42v41h500v-41c0-23 19-42 42-42h41c23 0 42 19 42 42v333l-87 250z m-517-417c-35 0-63 28-63 63 0 34 28 62 63 62 34 0 62-28 62-62 0-35-28-63-62-63z m458 0c-34 0-62 28-62 63 0 34 28 62 62 62 35 0 63-28 63-62 0-35-28-63-63-63z m-521 209l63 187h458l63-187h-584z" horiz-adv-x="1000" />

<glyph glyph-name="ic-green-home" unicode="&#xe8a8;" d="M596-42c0-8-4-21-13-29-8-8-16-12-29-12h-296c-37 0-70 12-95 41-25 25-42 59-42 96v300l-17-16c-4-5-8-9-12-9-4 0-9-4-17-4-8 0-17 4-21 8-8 5-12 9-12 17 0 13 0 21 0 29 0 9 4 13 12 21l346 342c17 16 42 25 67 25 25 0 50-9 71-25 0 0 0 0 0 0l337-342c8-8 13-17 13-29 0-8-5-21-13-29-8-9-17-13-29-13-8 0-21 4-29 13l-17 16v0c0-8-4-20-12-29-9-8-17-12-30-12-8 0-20 4-29 12-8 9-12 17-12 29v80l-234 245c-4 5-12 5-16 5-4 0-13-5-17-9l-250-250v-371c0-16 4-29 17-41 12-13 25-17 41-17h296c9 0 21-4 29-13 9-8 13-16 13-29l0 0z m346 330c0 12-9 25-21 29-13 4-25 0-33-9l0 0c0 0 0 0-5-4-4-4-8-4-12-8-13-8-33-17-63-25-33-8-58-29-75-58-12-30-12-59-12-71-8 33-17 54-25 66 0 17 4 59-13 100-16 42-50 67-91 80-42 8-71 25-88 33-16 8-25 21-25 21-8 8-21 12-33 8-13-4-21-17-21-29 0 0 0-38 8-83 9-59 30-105 59-134 29-29 66-41 112-41 21 0 38 4 50 4 17-38 38-113 38-221 0-17 12-29 29-29 4 0 8 0 12 0l0 0c13 4 21 16 21 29 0 71 13 125 25 150 9 0 17-4 25-4l9 0c37 0 66 12 87 33 21 21 38 54 46 100-4 33-4 63-4 63z m-67-63c0-8-4-17-4-21-4-16-13-29-21-37-8-9-21-13-37-17-9 0-17 0-25 0 0 13 4 21 4 29 4 13 16 25 29 25l8 0v0c17 9 34 13 46 21z m-237-4c-13-4-30-4-46-4-25 0-46 8-63 25-12 12-25 33-33 62-4 13-8 29-8 46 25-12 58-25 91-33l0 0c25-4 38-21 50-46 9-17 9-33 9-50z m-188 212l0 0 0 0 0 0z" horiz-adv-x="1000" />

<glyph glyph-name="ic-globe" unicode="&#xe8ac;" d="M462 832c-256 0-462-206-462-462 0-256 206-462 462-462 255 0 461 206 461 462 0 256-206 462-461 462z m-391-462c0 57 14 114 36 163 32-10 63-21 99-28-7-43-11-89-11-135 0-46 4-92 11-135-36-7-67-18-99-28-22 49-36 106-36 163v0z m195 0c0 43 4 82 11 121 50-7 99-11 149-14v-217c-50 0-99-7-149-14-7 42-11 81-11 124v0z m366 192c-43-7-89-11-135-11v202c57-21 107-95 135-191v0z m-206 191v-202c-46 0-89 4-135 11 29 96 78 170 135 191v0z m0-564v-202c-57 21-106 95-135 191 46 7 89 11 135 11v0z m71-202v202c46 0 89-4 135-11-28-96-78-170-135-191v0z m0 273v217c50 0 99 7 149 14 7-39 11-78 11-121 0-43-4-82-11-121-50 7-99 11-149 11v0z m220 245c36 7 68 18 100 28 21-49 35-103 35-163 0-57-14-114-35-163-32 10-64 21-100 28 7 43 11 89 11 135 0 46-4 92-11 135v0z m64 92c-25-7-53-14-78-21-14 53-36 103-64 142 57-28 103-71 142-121z m-497 121c-25-39-46-89-64-142-25 3-50 11-78 21 39 50 85 93 142 121z m-142-575c25 7 53 14 78 21 14-53 36-103 64-142-57 29-103 71-142 121z m497-121c25 39 46 89 64 142 28-7 53-14 78-21-39-50-85-92-142-121z" horiz-adv-x="923" />

<glyph glyph-name="ic-recycling" unicode="&#xe8ad;" d="M729 517l-25-92c0 0 0-4 0-4l0 0c-4-8-8-17-16-21-5-4-13-4-17-4-4 0-8 0-8 0l-96 25c-21 4-29 25-25 42 4 16 25 29 41 25l17-5-96 167-91-171c-9-16-30-25-46-12-17 8-25 29-13 46l92 170c12 21 37 38 62 38 25 0 50-13 63-33l92-163 4 13c4 16 25 29 41 25s25-25 21-46z m-312-442c0-21-17-33-34-33h-183c-25 0-50 12-62 33-13 25-13 50 0 71l100 171-13-4c-17-5-37 8-42 25-4 16 5 37 25 41l96 25c4 0 9 0 13 0 0 0 0 0 0 0 4 0 8 0 8-4 0 0 0 0 0 0 0 0 0 0 4-4 0 0 4-4 4-4 0 0 5-4 5-9 0 0 0 0 0 0 0-4 4-4 4-8l25-92c4-16-4-37-25-41-4 0-9 0-9 0-16 0-29 8-33 25l-4 12-100-171h183c21 0 38-12 38-33z m454 0c-13-21-38-37-63-37h-204l9-9c12-12 12-37 0-50-9-8-17-8-25-8-9 0-17 4-25 8l-71 71c0 0 0 0 0 0-4 4-4 4-9 8 0 5-4 9-4 13 0 4 0 8 4 12 0 5 5 9 9 13l71 71c12 12 37 12 50 0 12-13 12-38 0-50l-9-9h204l-108 175c-8 17-4 38 13 50 16 9 37 5 50-12l108-175h0c12-21 12-46 0-71z" horiz-adv-x="1000" />

<glyph glyph-name="ic-stars" unicode="&#xe8ae;" d="M527 457c5 14 24 14 29 0l27-84c6-18 16-34 29-48 13-14 29-24 47-30l81-28c13-5 13-25 0-29l-81-28c-18-6-34-16-47-30-13-14-23-30-29-49l-27-83c-1-3-3-6-5-7-3-2-6-3-9-3-3 0-7 1-9 3-3 1-5 4-6 7l-26 83c-6 19-16 35-30 49-13 14-29 24-47 30l-80 28c-3 1-6 3-8 5-2 3-3 6-3 9 0 4 1 7 3 10 2 2 5 4 8 5l80 28c18 6 34 16 47 30 14 14 24 30 30 48l26 84v0z m-161 219c1 2 2 3 4 4 1 2 3 2 5 2 2 0 4 0 5-2 2-1 3-2 4-4l16-50c7-22 24-40 45-47l49-17c2-1 3-2 4-3 1-2 2-4 2-6 0-2-1-4-2-5-1-2-2-3-4-4l-49-16c-10-4-20-10-28-18-8-8-14-18-17-29l-16-50c-1-2-2-4-4-5-1-1-3-2-5-2-2 0-4 1-5 2-2 1-3 3-4 5l-16 50c-3 11-9 21-17 29-8 8-18 14-28 18l-49 16c-2 1-3 2-4 4-1 1-2 3-2 5 0 2 1 4 2 6 1 1 2 2 4 3l49 17c10 3 20 10 28 18 8 8 14 18 17 29l16 50v0z m295 45c0 1 1 2 2 3 1 1 2 1 4 1 1 0 2 0 3-1 1-1 2-2 2-3l11-33c5-15 16-27 31-32l32-11c1 0 2-1 3-2 1-1 1-3 1-4 0-1 0-2-1-3-1-1-2-2-3-3l-32-11c-7-2-14-6-19-12-5-5-9-12-12-19l-11-34c0-1-1-2-2-3-1 0-2-1-3-1-2 0-3 1-4 1-1 1-2 2-2 3l-11 34c-2 7-6 14-11 19-6 6-12 10-19 12l-32 11c-2 1-3 2-3 3-1 1-2 2-2 3 0 1 1 3 2 4 0 1 1 2 3 2l32 11c14 5 26 17 30 32l11 33v0z" horiz-adv-x="1000" />

<glyph glyph-name="ic-deals" unicode="&#xe8af;" d="M358-122c-7 0-15 2-21 7-7 5-11 11-14 19l-42 144-151-4c-6 0-12 1-17 4-5 2-10 6-13 11-4 5-6 11-7 16-1 6 0 12 2 18l50 142-124 85c-5 3-9 8-12 13-2 5-4 11-4 17 0 6 2 12 4 17 3 5 7 10 12 13l124 85-50 142c-2 6-2 12-2 18 1 5 3 11 7 16 3 5 8 9 13 11 5 3 11 4 17 4l151-4 42 144c2 6 5 11 9 15 4 5 10 8 15 10 6 1 12 2 18 1 5-1 11-4 16-7l119-92 120 92c4 4 10 6 16 7 5 1 11 1 17-1 6-2 11-5 15-9 4-5 7-10 9-15l42-145 151 4c6 0 12-1 17-3 5-3 10-7 13-12 4-5 6-10 7-16 1-6 0-12-2-17l-50-142 124-86c5-3 9-8 12-13 3-5 4-11 4-17 0-6-1-12-4-17-3-5-7-10-12-13l-124-85 50-142c2-6 3-12 2-18-1-5-3-11-7-16-3-5-8-9-13-11-5-3-11-4-17-4l-150 4-43-144c-2-6-5-11-9-15-4-5-9-8-15-10-6-1-12-2-17-1-6 1-12 4-16 7l-120 92-119-92c-7-5-15-8-23-8v1z m142 181c8 0 16-3 22-7l100-77 36 121c2 7 6 14 13 19 6 5 14 7 22 7l126-4-42 119c-3 7-3 16 0 23 2 8 7 14 14 19l103 71-103 71c-7 5-12 11-14 19-3 8-3 16 0 23l42 119-126-4c-8 0-16 2-22 7-7 5-12 12-14 20l-35 120-100-77c-6-4-14-7-22-7-8 0-16 3-22 7l-100 77-35-120c-2-8-7-15-14-20-6-5-14-7-22-6l-126 3 42-119c3-7 3-15 0-23-2-8-7-14-14-19l-103-71 103-71c7-5 12-11 14-19 3-8 3-16 0-23l-42-119 126 4c8 0 16-2 22-7 7-5 12-12 14-19l35-121 100 77c6 4 14 7 22 7l0 0z m17 156c-49 0-86 26-102 74h105c12 0 22 10 22 21v0c0 12-10 22-22 22h-113c-1 6-1 12-1 18 0 6 0 13 1 18h113c12 0 22 10 22 22v0c0 12-10 21-22 21h-105c16 48 53 73 102 73 24 0 45-7 62-20 18-14 43-19 61-5v0c15 13 18 35 4 49-32 31-76 50-128 50-97 0-163-55-183-147h-20c-12 0-21-9-21-21v0c0-12 9-22 21-22h14c-1-5-1-12-1-18 0-6 0-12 1-18h-14c-12 0-21-10-21-22v0c0-11 9-21 21-21h20c20-92 86-147 183-147 54 0 97 18 128 49 14 14 11 37-5 49v0c-17 14-41 9-58-4-18-13-39-21-64-21z" horiz-adv-x="1000" />

</font>
</defs>
</svg>
